<?xml version="1.0" standalone="no"?>
<!DOCTYPE svg PUBLIC "-//W3C//DTD SVG 1.1//EN" "http://www.w3.org/Graphics/SVG/1.1/DTD/svg11.dtd" >
<svg xmlns="http://www.w3.org/2000/svg">
<metadata>Generated by IcoMoon</metadata>
<defs>
<font id="icomoon" horiz-adv-x="1024">
<font-face units-per-em="1024" ascent="960" descent="-64" />
<missing-glyph horiz-adv-x="1024" />
<glyph unicode="&#x20;" horiz-adv-x="512" d="" />
<glyph unicode="&#xe900;" glyph-name="minus-circle" d="M512 746.667c188.204 0 341.333-153.124 341.333-341.321s-153.129-341.346-341.333-341.346c-188.204 0-341.333 153.148-341.333 341.346s153.129 341.321 341.333 341.321zM512 670.826c-146.383 0-265.49-119.102-265.49-265.48s119.106-265.48 265.49-265.48c146.383 0 265.49 119.102 265.49 265.48s-119.106 265.48-265.49 265.48zM625.785 443.286v-75.865h-227.58v75.865h227.58z" />
<glyph unicode="&#xe901;" glyph-name="plus-circle" d="M511.981 960c282.333 0 512.019-229.686 512.019-511.981s-229.686-512.019-512.019-512.019c-282.295 0-511.981 229.722-511.981 512.019s229.686 511.981 511.981 511.981zM511.981 846.239c-219.567 0-398.22-178.653-398.22-398.22s178.653-398.22 398.22-398.22c219.604 0 398.22 178.653 398.22 398.22s-178.615 398.22-398.22 398.22zM568.873 618.683v-113.797h113.797v-113.761h-113.797v-113.797h-113.761v113.797h-113.797v113.761h113.797v113.797h113.761z" />
<glyph unicode="&#xe902;" glyph-name="add-user" d="M439.809 846.215c63.287-0.777 102.189-54.639 133.205-80.719 32.139-27.011 17.752-72.692 22.965-128.156 2.409-25.76 18.412-7.217 28.839-41.317 7.887-25.696-1.749-94.024-22.701-117.859-20.623-23.481-19.005-89.597-52.695-114.683-35.933-26.721-58.404-6.672-3.3-114.555 27.783-54.439 209.79-34.677 245.624-82.283 24.403-32.336 27.113-99.523 27.415-114.055l0.037-2.811h-819.198l0.047 2.811c0.319 14.531 3.004 81.719 27.407 114.055 35.833 47.605 217.841 27.845 245.624 82.219 55.137 107.947 32.6 87.897-3.3 114.619-33.689 25.085-32.072 91.201-52.695 114.683-20.92 23.835-30.588 92.164-22.701 117.859 10.427 34.1 26.431 15.559 28.839 41.317 5.247 55.465 4.323 200.912 140.861 186.733 28.673 16.008 53.685 22.391 75.727 22.143zM921.613 597.331v-99.573h102.388v-99.573h-102.388v-99.541h-102.42v99.541h-102.388v99.573h102.388v99.573h102.42z" />
<glyph unicode="&#xe903;" glyph-name="alarm-clock" d="M569.159 959.999v-117.721c225.231-28.156 400.14-219.531 400.14-451.159 0-250.95-205.153-455.119-457.312-455.119s-457.312 204.169-457.312 455.119c0 231.628 174.946 423.003 400.176 451.159v0 117.721h114.31zM511.985 732.44c-189.129 0-342.966-153.136-342.966-341.32 0-188.221 153.837-341.358 342.966-341.358s343.003 153.136 343.003 341.358c0 188.185-153.874 341.32-343.003 341.32zM569.151 618.646v-170.661h114.346v-113.761h-228.657v284.422h114.31zM114.31 957.539l80.823-80.436-114.31-113.797-80.823 80.472 114.31 113.761zM909.653 957.532l114.346-113.761-80.823-80.436-114.346 113.761 80.823 80.436z" />
<glyph unicode="&#xe904;" glyph-name="alert" d="M993.655 223.66l-338.234 601.258c-36.312 64.534-87.246 100.046-143.42 100.046-56.224 0-107.157-35.512-143.465-100.046l-338.187-601.258c-36.134-64.268-40.134-126.807-11.289-176.177 28.845-49.29 85.379-76.446 159.11-76.446h667.66c73.779 0 130.267 27.155 159.11 76.446 28.845 49.334 24.845 111.912-11.289 176.177h0.004zM937.032 87.26c-13.957-23.823-47.157-37.424-91.157-37.424h-667.66c-44.001 0-77.247 13.689-91.157 37.424-13.957 23.868-9.556 59.513 11.956 97.825l338.187 601.258c21.467 38.091 48.711 59.912 74.846 59.912s53.379-21.823 74.756-59.912l338.187-601.258c21.555-38.312 25.911-73.957 12.045-97.825h-0.005zM512.003 252.503c-28.623 0-51.823-23.201-51.823-51.823 0-28.666 23.201-51.912 51.823-51.912 28.666 0 51.868 23.201 51.868 51.912 0 28.578-23.201 51.823-51.868 51.823zM512.003 628.159c-28.623 0-51.823-23.201-51.823-51.823 0-1.556 0.311-2.933 0.399-4.4h-0.266l20.667-251.157h0.178c1.333-15.911 14.578-28.533 30.844-28.533 16.311 0 29.513 12.578 30.889 28.533h0.178l20.667 251.157h-0.266c0.133 1.467 0.399 2.845 0.399 4.4 0 28.578-23.201 51.823-51.868 51.823h0.001z" />
<glyph unicode="&#xe905;" glyph-name="group-add" d="M522.241 491.814c18.969 21.227 32.432 43.981 40.387 68.267 7.974 24.266 11.96 50.809 11.96 79.626 0 28.836-4.37 55.951-13.107 81.347-8.72 25.414-21.8 47.605-39.24 66.574 47.022 6.062 86.462-5.316 118.32-34.133s47.787-66.746 47.787-113.787c0-47.022-16.111-84.942-48.333-113.759-32.24-28.836-71.498-40.213-117.774-34.133zM762.321 106.107v93.28c0 28.836-6.071 56.333-18.214 82.493-12.142 26.178-32.24 47.987-60.293 65.427 65.991-12.142 117.192-29.964 153.599-53.467 36.409-23.52 54.613-55.005 54.613-94.453v-93.28h-129.707zM865.841 429.227v98.986h-100.106v58.026h100.106v100.133h58.026v-100.133h100.133v-58.026h-100.133v-98.986h-58.026zM340.186 490.667c-43.236 0-79.071 14.226-107.507 42.68-28.454 28.436-42.68 64.271-42.68 107.507 0 42.471 14.226 77.934 42.68 106.387 28.436 28.436 64.271 42.653 107.507 42.653s79.080-14.217 107.534-42.653c28.436-28.454 42.653-63.916 42.653-106.387 0-43.236-14.217-79.071-42.653-107.507-28.454-28.454-64.298-42.68-107.534-42.68v0zM0 106.107v92.16c0 22.756 6.071 43.427 18.214 62.013 12.124 18.569 28.809 32.787 50.053 42.653 47.787 21.244 93.862 37.365 138.227 48.36 44.382 10.996 88.947 16.493 133.694 16.493 44.765 0 89.138-5.497 133.12-16.493 44-10.996 89.894-27.115 137.68-48.36 21.244-9.867 37.929-24.084 50.053-42.653 12.142-18.587 18.214-39.258 18.214-62.013v-92.16h-679.254zM340.186 548.694c25.795 0 47.414 8.72 64.853 26.16 17.458 17.458 26.187 39.076 26.187 64.853 0 25.795-8.729 47.605-26.187 65.427-17.44 17.822-39.058 26.734-64.853 26.734-25.777 0-47.395-8.911-64.853-26.734-17.44-17.822-26.16-39.631-26.16-65.427 0-25.777 8.72-47.395 26.16-64.853 17.458-17.44 39.076-26.16 64.853-26.16v0zM59.173 164.134h562.054v34.133c0 10.613-2.84 20.662-8.52 30.147-5.698 9.485-14.618 16.876-26.76 22.173-42.471 19.733-83.804 34.525-124 44.373-40.213 9.867-81.174 14.8-122.88 14.8-40.96 0-81.547-4.933-121.76-14.8-40.195-9.849-81.155-24.64-122.88-44.373-11.377-5.298-20.098-12.689-26.16-22.173s-9.093-19.533-9.093-30.147v-34.133z" />
<glyph unicode="&#xe906;" glyph-name="world" d="M512-64c-70.532 0-136.926 13.49-199.183 40.47-62.256 27-116.467 63.572-162.631 109.716-46.144 46.164-82.716 100.375-109.716 162.631-26.98 62.256-40.47 128.65-40.47 199.183s13.49 136.926 40.47 199.183c27 62.256 63.572 116.467 109.716 162.631 46.164 46.144 100.375 82.716 162.631 109.716 62.256 26.98 128.65 40.47 199.183 40.47s136.926-13.49 199.183-40.47c62.256-27 116.467-63.572 162.631-109.716 46.144-46.164 82.716-100.375 109.716-162.631 26.98-62.256 40.47-128.65 40.47-199.183s-13.49-136.926-40.47-199.183c-27-62.256-63.572-116.467-109.716-162.631-46.164-46.144-100.375-82.716-162.631-109.716-62.256-26.98-128.65-40.47-199.183-40.47v0zM457.141 5.216v108.4c-31.347 0-57.69 10.888-79.027 32.665s-32.006 48.338-32.006 79.686v56.143l-269.056 267.771c-2.612-15.674-5.006-32.215-7.179-49.623-2.173-17.429-3.26-34.848-3.26-52.257 0-113.207 37-212.035 111.001-296.486 74.022-84.471 167.197-133.238 279.526-146.299zM841.15 147.597c18.286 20.021 34.827 41.786 49.623 65.297 14.817 23.511 27.011 48.108 36.582 73.792s16.97 52.246 22.194 79.686c5.225 27.419 7.837 55.067 7.837 82.946 0 92.287-25.036 176.309-75.109 252.066-50.052 75.757-118.18 130.187-204.387 163.29v-24.827c0-30.469-10.449-56.593-31.347-78.369s-47.46-32.665-79.686-32.665h-109.716v-113.635c0-14.796-5.444-27.419-16.332-37.868s-24.169-15.674-39.843-15.674h-112.319v-112.319h336.987c13.939 0 26.134-5.444 36.582-16.332s15.674-23.73 15.674-38.526v-169.81h56.143c25.266 0 47.47-7.179 66.613-21.536 19.164-14.379 32.665-32.884 40.501-55.517v0z" />
<glyph unicode="&#xe907;" glyph-name="restaurant-menu" d="M63.34-61.126l-53.734 52.27 604.035 605.465c-20.327 45.51-24.439 91.972-12.336 139.387 12.080 47.438 38.447 91.972 79.103 133.602 40.654 40.654 90.997 67.998 151.026 82.030 60.007 14.031 109.849 1.208 149.527-38.471 38.727-37.751 51.318-87.117 37.774-148.099-13.567-60.982-41.154-112.288-82.761-153.918-39.702-40.654-83.505-66.545-131.407-77.673-47.926-11.128-94.145-7.504-138.656 10.873l-100.184-101.613 451.546-451.581-52.27-52.27-451.546 448.654-450.117-448.654zM243.395 442.725l-168.45 168.414c-47.415 46.462-72.33 101.393-74.746 164.791-2.439 63.398 17.644 121.232 60.251 173.502l344.114-345.542-161.167-161.167z" />
<glyph unicode="&#xe908;" glyph-name="eco" d="M142.349 82.48c-45.289 45.289-80.329 97.307-105.122 156.052-24.818 58.772-37.227 118.889-37.227 180.353 0 65.786 12.681 130.225 38.042 193.319 25.336 63.068 63.883 119.937 115.642 170.609 45.289 47.463 103.518 83.319 174.686 107.568 71.168 24.274 146.646 41.523 226.432 51.746 79.786 10.248 160.116 15.373 240.988 15.373s153.658-1.617 218.357-4.853c5.408-64.699 8.644-137.213 9.704-217.542 1.087-80.329-3.766-160.387-14.557-240.174-10.766-79.812-28.829-155.573-54.192-227.285-25.336-71.686-61.179-130.716-107.529-177.092-49.61-51.759-105.148-90.034-166.611-114.827-61.463-24.818-123.471-37.227-186.021-37.227-65.76 0-128.84 11.594-189.243 34.782-60.376 23.187-114.827 59.587-163.35 109.198zM265.288 88.924c33.411-21.558 70.612-38.262 111.605-50.115 40.967-11.878 80.317-17.818 118.049-17.818 51.759 0 103.259 10.52 154.5 31.56 51.215 21.014 97.85 53.091 139.904 96.232 25.879 26.966 48.782 63.094 68.71 108.383 19.953 45.289 36.127 98.394 48.523 159.313 12.422 60.92 21.325 129.927 26.707 207.022s6.457 160.931 3.222 251.508c-65.76 2.174-134.495 1.902-206.207-0.815-71.712-2.692-140.719-9.692-207.022-21.001-66.329-11.335-126.188-27.238-179.577-47.709-53.364-20.497-96.22-46.376-128.569-77.638-46.376-47.463-80.071-97.073-101.085-148.832-21.040-51.759-31.56-101.357-31.56-148.793 0-53.906 11.064-107.011 33.191-159.313 22.1-52.302 52.018-95.172 89.75-128.608 26.966 80.873 69.563 156.363 127.792 226.47 58.229 70.081 139.633 136.397 244.211 198.947-77.638-70.107-142.064-142.893-193.28-218.357-51.215-75.49-90.837-162.302-118.864-260.437v0z" />
<glyph unicode="&#xe909;" glyph-name="arrow-down-left" d="M0.413 906.516l152.469-0.070-0.312-710.070 763.624 763.624 107.805-107.805-763.624-763.624 710.035 0.348 0.070-152.469-970.48-0.451z" />
<glyph unicode="&#xe90a;" glyph-name="arrow-down-right" d="M1023.587 906.516l-152.469-0.070 0.312-710.070-763.624 763.624-107.805-107.805 763.624-763.624-710.035 0.348-0.070-152.469 970.48-0.451z" />
<glyph unicode="&#xe90b;" glyph-name="arrow-down" d="M1023.999 448.44l-80.509 80.433-374.61-374.926v806.053h-113.797v-806.053l-374.574 374.926-80.509-80.433 511.981-512.44z" />
<glyph unicode="&#xe90c;" glyph-name="arrow-left" d="M512.458-63.999l80.4 80.509-374.94 374.61h806.082v113.761h-806.082l374.94 374.61-80.4 80.509-512.458-512.019z" />
<glyph unicode="&#xe90d;" glyph-name="arrow-right" d="M511.56 960l-80.433-80.509 374.926-374.61h-806.053v-113.797h806.053l-374.926-374.574 80.433-80.509 512.44 511.981z" />
<glyph unicode="&#xe90e;" glyph-name="arrow-up-left" d="M0.451-10.546l152.438 0.105-0.312 710.116 763.648-763.676 107.774 107.777-763.648 763.676 710.092-0.312 0.105 152.443-970.547 0.417z" />
<glyph unicode="&#xe90f;" glyph-name="arrow-up-right" d="M1023.549-10.546l-152.438 0.105 0.312 710.116-763.648-763.676-107.774 107.777 763.648 763.676-710.092-0.312-0.105 152.443 970.547 0.417z" />
<glyph unicode="&#xe910;" glyph-name="arrow-up" d="M0 447.542l80.509-80.4 374.61 374.94v-806.082h113.761v806.082l374.61-374.94 80.509 80.4-512.019 512.458z" />
<glyph unicode="&#xe911;" glyph-name="attach" d="M755.792 704.016v-409.613c0-141.157-109.384-255.984-243.812-255.984s-243.78 114.827-243.78 255.984v409.613c0 84.701 65.612 153.597 146.275 153.597s146.275-68.896 146.275-153.597v-409.613c0-28.212-21.871-51.209-48.768-51.209s-48.768 22.999-48.768 51.209v409.613h-97.505v-409.613c0-84.701 65.612-153.597 146.275-153.597 80.695 0 146.275 68.896 146.275 153.597v409.613c0 141.157-109.352 255.984-243.78 255.984s-243.812-114.827-243.812-255.984v-409.613c0-197.613 153.125-358.403 341.317-358.403s341.349 160.789 341.349 358.403v409.613h-97.537z" />
<glyph unicode="&#xe912;" glyph-name="back" d="M36.579 956.844h219.421c20.127 0 36.578-14.347 36.578-31.809v-386.9l680.985 419.446c4.289 1.558 8.955 2.419 13.858 2.419 20.268 0 36.578-14.223 36.578-31.809v-960.383c0-17.544-16.31-31.809-36.578-31.809-4.903 0-9.569 0.902-13.858 2.46l-680.985 419.405v-386.9c0-17.462-16.45-31.809-36.578-31.809h-219.421c-20.079 0-36.578 14.347-36.578 31.809v954.071c0 17.462 16.498 31.809 36.578 31.809z" />
<glyph unicode="&#xe913;" glyph-name="work" d="M100.788-21.669c-27.78 0-51.516 9.858-71.212 29.575-19.716 19.695-29.575 43.884-29.575 72.567v548.284c0 28.661 9.858 52.85 29.575 72.567 19.695 19.695 43.432 29.543 71.212 29.543h224.409v84.661c0 27.78 10.084 51.754 30.253 71.921 20.147 20.147 44.11 30.22 71.889 30.22h169.323c27.78 0 51.742-10.073 71.889-30.22 20.168-20.168 30.253-44.142 30.253-71.921v-84.661h224.409c27.78 0 51.516-9.848 71.212-29.543 19.716-19.716 29.575-43.906 29.575-72.567v-548.284c0-28.683-9.858-52.871-29.575-72.567-19.695-19.716-43.432-29.575-71.212-29.575h-822.424zM100.788 46.866h822.424c8.063 0 15.459 3.58 22.189 10.74 6.708 7.181 10.063 14.804 10.063 22.867v548.284c0 8.063-3.354 15.675-10.063 22.834-6.729 7.16-14.126 10.74-22.189 10.74h-822.424c-8.063 0-15.459-3.58-22.189-10.74-6.708-7.16-10.063-14.771-10.063-22.834v-548.284c0-8.063 3.354-15.685 10.063-22.867 6.729-7.16 14.126-10.74 22.189-10.74zM395.088 730.865h233.827v84.661c0 8.063-3.365 15.459-10.095 22.189-6.708 6.708-14.094 10.063-22.157 10.063h-169.323c-8.063 0-15.449-3.354-22.157-10.063-6.729-6.729-10.095-14.126-10.095-22.189v-84.661zM68.537 46.866v0z" />
<glyph unicode="&#xe914;" glyph-name="bell" d="M632.494 49.797c0-62.874-53.919-113.796-120.493-113.796s-120.493 50.922-120.493 113.796v0zM511.982 959.999c198.79 0 361.441-153.61 361.441-341.353v0-312.867l150.577-199.107h-1024l150.577 199.107v312.867c0 187.743 162.651 341.353 361.402 341.353z" />
<glyph unicode="&#xe915;" glyph-name="bin" d="M860.425 703.971v-753.783c0-14.089-11.196-14.188-24.893-14.188v0h-647.113c-13.665 0-24.893 0.099-24.893 14.188v0 753.783h696.901zM462.219 550.409h-49.788v-409.607h49.788v409.607zM611.549 550.409h-49.788v-409.607h49.788v409.607zM621.857 960l99.544-102.419h163.928c13.699 0 24.893-22.932 24.893-37.021v0-65.364h-796.444v65.364c0 14.089 11.196 37.021 24.893 37.021v0h163.896l99.544 102.419h219.747zM601.229 908.791h-178.492l-49.788-51.209h278.068l-49.788 51.209z" />
<glyph unicode="&#xe916;" glyph-name="calendar" d="M729.609 903.109c25.753-0.247 46.724-19.264 48.875-43.345l0.18-4.572-0.765-71.491 147.004-0.035c54.729 0 99.097-42.485 99.097-94.893v-600.991c0-52.408-44.367-94.893-99.097-94.893h-825.806c-54.729 0-99.097 42.485-99.097 94.893v600.991c0 52.408 44.367 94.893 99.097 94.893l150.304 0.035 0.752 72.431c0.271 26.203 22.673 47.233 50.037 46.976 25.753-0.247 46.724-19.264 48.875-43.345l0.18-4.572-0.744-71.491h330.297l0.775 72.431c0.271 26.203 22.673 47.233 50.037 46.976zM924.899 426.496h-825.855l0.053-338.713h825.806l-0.004 338.713zM248.378 688.81l-149.28-0.037-0.053-167.386h825.855l0.004 167.386-147.972 0.037-0.676-66.313c-0.271-26.203-22.673-47.233-50.037-46.976-25.753 0.247-46.724 19.264-48.875 43.345l-0.18 4.572 0.668 65.373h-330.353l-0.641-66.313c-0.271-26.203-22.673-47.233-50.037-46.976-25.753 0.247-46.724 19.264-48.875 43.345l-0.18 4.572 0.632 65.373z" />
<glyph unicode="&#xe917;" glyph-name="camera" d="M665.599 852.209l102.42-101.040h51.209v25.236c0 13.904 11.516 25.268 25.572 25.268v0h51.209c14.056 0 25.605-11.364 25.605-25.268v0-25.236h76.781c14.089 0 25.605-11.397 25.605-25.268v0-656.843c0-13.904-11.516-25.268-25.605-25.268v0h-972.789c-14.089 0-25.605 11.364-25.605 25.268v0 656.843c0 13.872 11.516 25.268 25.605 25.268v0h230.412l102.387 101.040h307.193zM512.002 650.128c-141.421 0-255.984-113.088-255.984-252.649s114.563-252.649 255.984-252.649c141.421 0 256.016 113.088 256.016 252.649s-114.596 252.649-256.016 252.649zM512.002 549.059c84.833 0 153.597-67.827 153.597-151.577 0-83.717-68.764-151.609-153.597-151.609s-153.597 67.892-153.597 151.609c0 83.749 68.764 151.577 153.597 151.577z" />
<glyph unicode="&#xe918;" glyph-name="chevron-down" d="M512 345.6l409.6 409.6 102.4-102.4-512-512-512 512 102.4 102.4z" />
<glyph unicode="&#xe919;" glyph-name="chevron-left" d="M409.6 448l409.6-409.6-102.4-102.4-512 512 512 512 102.4-102.4z" />
<glyph unicode="&#xe91a;" glyph-name="chevron-right" d="M614.4 448l-409.6-409.6 102.4-102.4 512 512-512 512-102.4-102.4z" />
<glyph unicode="&#xe91b;" glyph-name="chevron-up" d="M512 550.4l409.6-409.6 102.4 102.4-512 512-512-512 102.4-102.4z" />
<glyph unicode="&#xe91c;" glyph-name="clock" d="M512 960c282.342 0 511.999-229.686 511.999-512.019s-229.657-511.981-511.999-511.981c-282.342 0-511.999 229.65-511.999 511.981s229.657 512.019 511.999 512.019zM512 846.203c-219.538 0-398.235-178.615-398.235-398.22 0-219.531 178.696-398.22 398.235-398.22 219.574 0 398.235 178.689 398.235 398.22 0 219.604-178.659 398.22-398.235 398.22zM568.893 732.426v-227.559h113.802v-113.761h-227.604v341.32h113.802z" />
<glyph unicode="&#xe91d;" glyph-name="cloud" d="M844.7 496.313c0 0.581 0.099 1.129 0.099 1.709 0 165.58-137.792 300.294-307.194 300.294-133.602 0-247.206-83.918-289.441-200.54-137.495-3.902-248.164-114.364-248.164-249.884 0-137.972 115.024-250.207 256.379-250.207h562.814c112.912 0 204.807 89.788 204.807 200.152 0 101.947-78.365 186.124-179.3 198.476z" />
<glyph unicode="&#xe91e;" glyph-name="cog" d="M512.016 305.771c-78.566 0-142.211 63.755-142.211 142.211 0 78.566 63.645 142.248 142.211 142.248 78.456 0 142.211-63.682 142.211-142.248 0-78.456-63.755-142.211-142.211-142.211v0zM1023.998 362.67v170.661l-126.813 14.078c-9.385 36.515-23.794 70.978-42.491 102.689l79.666 99.573-120.69 120.69-99.536-79.666c-31.749 18.734-66.175 33.069-102.726 42.528l-14.041 126.776h-170.698l-14.078-126.776c-36.589-9.459-71.013-23.794-102.689-42.528l-99.61 79.666-120.727-120.69 79.739-99.573c-18.734-31.676-33.069-66.175-42.528-102.689l-126.776-14.078v-170.661l126.776-14.078c9.459-36.589 23.794-71.013 42.528-102.689l-79.739-99.61 120.727-120.69 99.61 79.703c31.676-18.734 66.102-33.106 102.689-42.491l14.078-126.813h170.698l14.041 126.813c36.552 9.385 70.978 23.757 102.654 42.491l99.61-79.703 120.69 120.69-79.666 99.61c18.771 31.676 33.106 66.102 42.491 102.689l126.813 14.078z" />
<glyph unicode="&#xe91f;" glyph-name="comment" d="M682.68 391.104c-31.419 0-56.899 25.479-56.899 56.896s25.48 56.896 56.899 56.896c31.419 0 56.899-25.479 56.899-56.896s-25.48-56.896-56.899-56.896zM512.019 391.104c-31.419 0-56.899 25.479-56.899 56.896s25.48 56.896 56.899 56.896c31.419 0 56.862-25.479 56.862-56.896s-25.443-56.896-56.862-56.896zM341.322 391.104c-31.383 0-56.862 25.479-56.862 56.896s25.48 56.896 56.862 56.896c31.419 0 56.899-25.479 56.899-56.896s-25.48-56.896-56.899-56.896zM512.019 959.999c-282.808 0-512.019-229.237-512.019-511.999 0-141.399 57.303-269.38 149.946-362.058l-149.946-149.941h512.019c282.808 0 511.981 229.201 511.981 511.999 0 282.762-229.173 511.999-511.981 511.999z" />
<glyph unicode="&#xe920;" glyph-name="crop" d="M284.47 220.459v455.119h455.136v-455.119h-455.136zM853.37 220.459v483.532c0 47.073-38.313 85.348-85.351 85.348h-483.549v170.661h-113.802v-170.661h-170.667v-113.761h170.667v-483.568c0-47.073 38.277-85.348 85.351-85.348h483.549v-170.661h113.802v170.661h170.629v113.797h-170.629z" />
<glyph unicode="&#xe921;" glyph-name="document" d="M810.652 71.383c0-18.148-14.435-32.996-32.079-32.996h-533.176c-17.643 0-32.079 14.848-32.079 32.996v753.235c0 18.115 14.435 32.996 32.079 32.996h284.28c17.675 0 32.079-14.881 32.079-32.996v-190.024c0-18.148 14.435-32.996 32.079-32.996h184.74c17.643 0 32.079-14.848 32.079-32.996v-497.217zM634.22 936.672c-12.479 12.836-28.261 23.328-35.125 23.328h-428.344c-17.643 0-37.692-2.573-44.525-5.775-6.865-3.168-12.447-34.679-12.447-52.827v-906.797c0-18.148 2.503-38.771 5.613-45.799 3.048-7.061 33.715-12.803 51.357-12.803h682.501c17.611 0 37.66 2.607 44.493 5.741 6.865 3.168 12.479 34.712 12.479 52.86v625.209c0 18.148-10.233 43.489-22.712 56.324l-253.292 260.537z" />
<glyph unicode="&#xe922;" glyph-name="drawer" d="M810.677 857.584v-665.575h-193.697c0-51.208-47.285-102.384-102.271-102.384-54.952 0-102.271 51.175-102.271 102.384h-199.119v665.575h597.357zM910.221 934.396c0 14.121-11.132 25.604-24.893 25.604h-746.656c-13.763 0-24.893-11.483-24.893-25.604v-972.792c0-14.121 11.132-25.604 24.893-25.604h746.656c13.763 0 24.893 11.483 24.893 25.604v972.792z" />
<glyph unicode="&#xe923;" glyph-name="dribble" d="M756.223 85.378c-4.351 26.368-27.775 154.687-84.991 312.318 141.12 22.528 263.359-16.128 272.383-19.135-19.392-121.792-89.152-226.943-187.391-293.183zM512 10.753c-105.919 0-202.879 37.632-278.527 100.159 5.76-4.608 9.727-7.615 9.727-7.615s83.904 182.848 343.167 273.151c0.96 0.384 1.855 0.64 2.88 0.895 61.504-159.871 86.976-293.694 93.376-331.967-52.416-22.336-110.143-34.624-170.623-34.624zM74.753 448.064c0 4.608 0.192 9.216 0.319 13.759 7.807-0.127 223.807-5.056 448.894 62.272 12.48-24.448 24.511-49.408 35.52-74.304-5.887-1.6-11.52-3.328-17.28-5.184-235.967-76.224-355.583-288.575-355.583-288.575s0.127-0.127 0.127-0.192c-69.631 77.44-112 179.839-112 292.223zM325.377 843.454c5.824-7.807 86.719-117.439 162.367-251.968-209.92-55.744-392.127-53.568-403.647-53.376 28.351 135.424 119.359 247.744 241.279 305.343zM800.702 776.127c-1.087-1.663-63.36-96.448-228.352-158.335-74.752 137.344-156.863 246.463-163.391 255.103 33.024 8.064 67.519 12.352 103.039 12.352 110.592 0 211.711-41.215 288.702-109.12zM949.118 452.351c-6.4 1.408-154.367 33.216-304.638 14.335-3.007 7.488-6.144 14.976-9.408 22.591-9.088 21.439-18.88 42.624-29.119 63.424 172.799 70.399 242.879 171.775 243.647 173.056 61.375-74.496 98.368-169.663 99.52-273.407zM1013.502 551.039c-6.655 32.896-16.768 65.344-29.887 96.256-12.736 30.4-28.672 59.647-47.167 86.976-18.367 27.136-39.36 52.608-62.464 75.712-23.104 23.232-48.64 44.224-75.775 62.527-27.328 18.496-56.64 34.368-86.976 47.232-30.912 12.991-63.232 23.104-96.256 29.824-33.6 6.912-68.352 10.432-102.976 10.432-34.752 0-69.376-3.52-103.168-10.432-32.832-6.72-65.215-16.831-96.256-29.824-30.208-12.864-59.584-28.735-86.976-47.232-27.007-18.304-52.48-39.295-75.775-62.527-23.104-23.104-44.095-48.576-62.335-75.712-18.496-27.328-34.368-56.575-47.296-86.976-13.12-30.912-23.104-63.36-29.824-96.256-6.912-33.6-10.368-68.352-10.368-102.976 0-34.752 3.456-69.504 10.368-103.168 6.72-32.896 16.704-65.28 29.824-96.192 12.928-30.336 28.8-59.712 47.296-87.040 18.24-27.072 39.232-52.543 62.335-75.712 23.296-23.167 48.768-44.16 75.775-62.464 27.391-18.496 56.767-34.368 86.976-47.167 31.039-13.12 63.424-23.104 96.256-29.887 33.792-6.912 68.416-10.432 103.168-10.432 34.624 0 69.376 3.52 102.976 10.432 33.024 6.784 65.344 16.768 96.256 29.887 30.336 12.799 59.647 28.672 86.976 47.167 27.136 18.304 52.672 39.295 75.775 62.464s44.095 48.64 62.464 75.712c18.496 27.328 34.432 56.704 47.167 87.040 13.12 30.912 23.232 63.295 29.887 96.192 6.976 33.664 10.495 68.416 10.495 103.168 0 34.624-3.52 69.376-10.495 102.976z" />
<glyph unicode="&#xe924;" glyph-name="education" d="M537.606 852.21l486.394-303.15-486.394-303.15-435.218 271.24v-303.541c15.277-8.759 25.605-24.844 25.605-43.503 0-17.648-9.205-33.148-23.131-42.168v0l48.735-84.14h-153.597l48.735 84.14c-13.924 9.020-23.163 24.519-23.163 42.168 0 18.657 10.361 34.744 25.605 43.503v0 335.452l486.427 303.15zM204.811 393.6l332.798-207.45 332.798 207.418v-142.328l-332.798-207.45-332.798 207.45v142.36z" />
<glyph unicode="&#xe925;" glyph-name="email" d="M1024 579.741v-428.88c0-12.579-11.548-22.861-25.605-22.861v0h-972.823c-14.056 0-25.572 10.281-25.572 22.861v0 428.88l511.999-228.58 511.999 228.58zM998.395 768c14.056 0 25.605-10.311 25.605-22.861v0-63.192l-511.999-228.552-511.999 228.552v63.192c0 12.55 11.515 22.861 25.572 22.861v0z" />
<glyph unicode="&#xe926;" glyph-name="eye-closed" d="M138.614 903.111l819.176-836.284-72.392-73.937-178.802 182.536c-62.395-26.577-127.495-41.028-194.574-41.028-193.782 0-371.66 117.559-512.022 313.602 66.585 92.936 141.649 167.884 222.752 221.374v0l-156.53 159.798 72.392 73.937zM335.762 554.005c-18.016-31.057-28.541-67.235-28.541-106.005 0-115.471 91.661-209.080 204.802-209.080 37.945 0 73.316 10.813 103.771 29.239v0l-77.639 79.26c-8.381-2.324-17.059-3.975-26.132-3.975-56.555 0-102.417 46.923-102.417 104.556 0 9.297 1.584 18.189 3.795 26.745v0zM512.009 761.602c193.782 0 371.693-117.559 511.99-313.602-48.999-68.447-102.649-127.057-159.862-174.721v0l-148.644 151.748c0.825 7.545 1.32 15.225 1.32 22.973 0 115.471-91.695 209.080-204.802 209.080-7.589 0-15.112-0.505-22.503-1.348v0l-90.308 92.228c36.856 8.859 74.504 13.643 112.812 13.643z" />
<glyph unicode="&#xe927;" glyph-name="eye" d="M511.984 760.889c193.78 0 371.689-117.285 512.016-312.872-140.328-195.587-318.237-312.905-512.016-312.905-193.747 0-371.623 117.319-511.984 312.905 140.361 195.587 318.237 312.872 511.984 312.872zM511.984 656.61c-113.107 0-204.8-93.391-204.8-208.592s91.693-208.592 204.8-208.592c113.107 0 204.8 93.391 204.8 208.592s-91.693 208.592-204.8 208.592zM511.984 552.317c56.488 0 102.416-46.712 102.416-104.313 0-57.5-45.929-104.28-102.416-104.28-56.553 0-102.384 46.78-102.384 104.28 0 57.601 45.831 104.313 102.384 104.313z" />
<glyph unicode="&#xe928;" glyph-name="facebook" d="M749.952 628.416h-162.112v106.303c0 39.871 26.496 49.216 45.12 49.216h114.304v175.488l-157.504 0.576c-174.784 0-214.528-130.879-214.528-214.591v-116.992h-101.184v-180.736h101.184v-511.68h212.608v511.68h143.488l18.624 180.736z" />
<glyph unicode="&#xe929;" glyph-name="filters" d="M398.231 277.326c74.311 0 137.332-47.514 160.722-113.8v0h436.597c15.618 0 28.449-12.795 28.449-28.413v0-56.899c0-15.655-12.831-28.45-28.449-28.45v0h-436.597c-23.389-66.249-86.41-113.763-160.722-113.763-74.349 0-137.332 47.514-160.795 113.763v0h-208.968c-15.654 0-28.449 12.795-28.449 28.45v0 56.899c0 15.618 12.795 28.413 28.449 28.413v0h208.968c23.463 66.285 86.446 113.8 160.795 113.8zM398.231 191.976c-47.146 0-85.347-38.202-85.347-85.312 0-47.148 38.2-85.35 85.347-85.35 47.109 0 85.347 38.202 85.347 85.35 0 47.11-38.238 85.312-85.347 85.312zM739.547 618.634c74.349 0 137.332-47.478 160.759-113.763v0h95.245c15.618 0 28.449-12.795 28.449-28.413v0-56.899c0-15.655-12.831-28.45-28.449-28.45v0h-95.245c-23.427-66.249-86.41-113.8-160.759-113.8-74.311 0-137.332 47.551-160.759 113.8v0h-550.319c-15.654 0-28.449 12.795-28.449 28.45v0 56.899c0 15.618 12.795 28.413 28.449 28.413v0h550.319c23.427 66.285 86.446 113.763 160.759 113.763zM739.547 533.32c-47.146 0-85.347-38.202-85.347-85.312 0-47.148 38.2-85.35 85.347-85.35 47.109 0 85.347 38.202 85.347 85.35 0 47.11-38.238 85.312-85.347 85.312zM284.453 959.999c74.311 0 137.332-47.514 160.759-113.8v0h550.319c15.654 0 28.449-12.795 28.449-28.413v0-56.899c0-15.655-12.795-28.45-28.449-28.45v0h-550.319c-23.427-66.285-86.446-113.8-160.759-113.8-74.349 0-137.332 47.514-160.759 113.8v0h-95.245c-15.618 0-28.449 12.795-28.449 28.45v0 56.899c0 15.618 12.831 28.413 28.449 28.413v0h95.245c23.427 66.285 86.41 113.8 160.759 113.8zM284.453 874.649c-47.146 0-85.347-38.202-85.347-85.312 0-47.148 38.2-85.35 85.347-85.35 47.109 0 85.347 38.202 85.347 85.35 0 47.11-38.238 85.312-85.347 85.312z" />
<glyph unicode="&#xe92a;" glyph-name="anchor" d="M511.308-64c-63.978 0-123.615 9.826-178.908 29.478-55.272 19.652-103.47 45.927-144.593 78.827s-73.575 71.513-97.35 115.84c-23.753 44.327-35.63 91.614-35.63 141.863v115.149l169.992-128.834-79.518-78.136c27.417-58.495 70.373-105.793 128.868-141.895 58.474-36.102 126.092-55.974 202.858-59.614v482.505h-168.61v69.911h168.61v115.149c-32.9 9.146-59.395 26.057-79.485 50.731-20.112 24.675-30.169 53.461-30.169 86.361 0 41.125 13.939 75.855 41.816 104.193 27.877 28.315 61.917 42.473 102.12 42.473s74.473-14.158 102.811-42.473c28.337-28.337 42.507-62.608 42.507-102.811 0-33.82-10.286-63.068-30.86-87.743-20.551-24.675-46.827-41.585-78.827-50.731v-115.149h168.61v-69.911h-168.61v-482.505c75.867 3.641 143.496 23.512 202.892 59.614s101.89 83.4 127.485 141.895l-78.136 78.136 169.992 128.834v-115.149c0-50.249-12.118-97.536-36.354-141.863-24.214-44.327-56.883-82.94-98.008-115.84s-89.323-59.175-144.593-78.827c-55.293-19.652-114.929-29.478-178.908-29.478v0zM511.308 740.689c21.011 0 38.833 7.074 53.461 21.221 14.629 14.168 21.944 31.309 21.944 51.423 0 21.933-7.315 39.984-21.944 54.152s-32.45 21.253-53.461 21.253c-21.011 0-38.602-7.315-52.771-21.944s-21.253-31.99-21.253-52.080c0-21.034 7.085-38.635 21.253-52.804 14.168-14.147 31.759-21.221 52.771-21.221z" />
<glyph unicode="&#xe92b;" glyph-name="real-estate" d="M921.218 305.252v383.195l-272.832 189.084-271.523-189.084v-148.461h-64.714v180.192l336.236 239.82 337.546-239.82v-414.928h-64.714zM669.978 611.065h58.349v58.349h-58.349v-58.349zM568.445 611.065h58.38v58.349h-58.38v-58.349zM669.978 509.534h58.349v58.38h-58.349v-58.38zM568.445 509.534h58.38v58.38h-58.38v-58.38zM636.966-63.997l-390.809 112.921v-69.77h-238.542v463.136h359.076l315.955-118.008c23.693-8.466 42.097-20.515 55.212-36.149 13.116-15.653 19.673-42.097 19.673-79.331h147.182c33.844 0 60.917-12.262 81.22-36.788s30.454-56.247 30.454-95.168v-22.84l-379.42-118.008zM72.328 43.87h109.115v333.709h-109.115v-333.709zM633.159 4.524l315.955 97.695c-1.686 12.689-5.908 22.627-12.669 29.814-6.781 7.207-17.358 10.811-31.733 10.811h-252.52c-21.988 0-43.975 1.686-65.963 5.056-22.008 3.39-40.625 7.623-55.852 12.699l-109.115 34.26 22.84 63.435 86.275-30.454c22.008-7.613 43.163-12.689 63.465-15.227s53.709-3.807 100.222-3.807c0 15.227-2.751 27.074-8.253 35.539-5.481 8.466-13.724 14.81-24.729 19.034l-305.813 114.201h-109.115v-260.133l387.002-112.921z" />
<glyph unicode="&#xe92c;" glyph-name="flickr" d="M227.131 675.066c125.373 0 227.131-101.693 227.131-227.066s-101.758-227.066-227.131-227.066c-125.437 0-227.131 101.693-227.131 227.066s101.693 227.066 227.131 227.066zM796.87 675.066c125.437 0 227.131-101.693 227.131-227.066s-101.693-227.066-227.131-227.066c-125.373 0-227.066 101.693-227.066 227.066s101.693 227.066 227.066 227.066z" />
<glyph unicode="&#xe92d;" glyph-name="folder" d="M0 74.671c0-13.665 11.548-24.893 25.604-24.893h972.792c14.056 0 25.604 11.228 25.604 24.893v597.333c0 13.665-11.548 24.861-25.604 24.861h-537.588l-153.592 149.357h-281.612c-14.056 0-25.604-11.196-25.604-24.893v-746.659z" />
<glyph unicode="&#xe92e;" glyph-name="forward" d="M924.032 956.845h-190.165c-17.443 0-31.701-14.346-31.701-31.808v-386.901l-590.187 419.446c-3.717 1.558-7.762 2.418-12.011 2.418-17.525 0-31.701-14.224-31.701-31.808v-960.384c0-17.544 14.176-31.808 31.701-31.808 4.248 0 8.293 0.902 12.011 2.459l590.187 419.405v-386.901c0-17.461 14.258-31.808 31.701-31.808h190.165c17.403 0 31.701 14.346 31.701 31.808v954.072c0 17.461-14.298 31.808-31.701 31.808z" />
<glyph unicode="&#xe92f;" glyph-name="iphone" d="M289.277-63.999c-25.816 0-47.603 9.073-65.362 27.219-17.739 18.166-26.609 39.759-26.609 64.78v840c0 25.022 8.87 46.615 26.609 64.78 17.759 18.146 39.546 27.219 65.362 27.219h445.447c25.816 0 47.603-9.073 65.362-27.219 17.739-18.166 26.609-39.759 26.609-64.78v-840c0-25.022-8.87-46.615-26.609-64.78-17.759-18.146-39.546-27.219-65.362-27.219h-445.447zM259.035 147.831v-119.83c0-7.262 3.224-13.924 9.674-19.987 6.45-6.041 13.306-9.064 20.568-9.064h445.447c7.262 0 14.118 3.021 20.568 9.064 6.45 6.062 9.674 12.724 9.674 19.987v119.83h-505.928zM512.001 35.264c10.496 0 19.58 3.835 27.249 11.504 7.649 7.649 11.475 16.723 11.475 27.219 0 9.683-4.028 18.36-12.085 26.028-8.076 7.669-16.955 11.504-26.639 11.504-10.496 0-19.58-3.835-27.249-11.504-7.649-7.669-11.475-16.752-11.475-27.249 0-9.683 4.028-18.35 12.085-26 8.076-7.669 16.955-11.504 26.639-11.504v0zM259.035 210.754h505.928v564.058h-505.928v-564.058zM259.035 836.541h505.928v31.46c0 7.262-3.224 13.924-9.674 19.987-6.45 6.041-13.306 9.064-20.568 9.064h-445.447c-7.262 0-14.118-3.021-20.568-9.064-6.45-6.062-9.674-12.724-9.674-19.987v-31.46zM259.035 147.831v0zM259.035 836.541v0z" />
<glyph unicode="&#xe930;" glyph-name="gauge" d="M512 852.21c136.769 0 265.354-52.588 362.066-148.060 96.711-95.439 149.934-222.399 149.934-357.435 0-110.842-36.394-215.919-102.716-302.926v0l-73.185 72.191c47.614 67.24 73.516 146.953 73.516 230.736 0 108.009-42.598 209.571-119.974 285.962-77.343 76.358-180.192 118.429-289.64 118.429-109.382 0-212.297-42.071-289.64-118.429-77.343-76.391-119.941-177.953-119.941-285.962 0-83.783 25.869-163.494 73.449-230.768v0l-73.119-72.158c-66.355 86.974-102.75 192.085-102.75 302.926 0 135.035 53.256 261.996 149.967 357.435 96.678 95.472 225.264 148.060 362.033 148.060zM652.821 461.284c0 0-53.123-242.328-74.307-278.57s-68.17-48.648-104.894-27.71c-36.725 20.905-49.296 67.273-28.113 103.515 21.216 36.241 207.315 202.765 207.315 202.765zM204.816 397.463c28.277 0 51.177-22.631 51.177-50.536 0-27.873-22.9-50.536-51.177-50.536s-51.21 22.664-51.21 50.536c0 27.906 22.933 50.536 51.21 50.536zM819.233 397.471c28.244 0 51.177-22.631 51.177-50.536 0-27.873-22.933-50.536-51.177-50.536-28.311 0-51.21 22.664-51.21 50.536 0 27.906 22.9 50.536 51.21 50.536zM258.564 597.019c19.996 19.733 52.431 19.733 72.427 0 19.996-19.7 19.963-51.709 0-71.442-19.996-19.733-52.431-19.733-72.427 0-19.963 19.733-19.963 51.742 0 71.442zM693.054 597.033c19.996 19.733 52.398 19.733 72.393 0 19.963-19.7 19.996-51.709 0-71.442s-52.431-19.733-72.393 0c-19.996 19.733-19.996 51.709 0 71.442zM512.004 700.626c28.244 0 51.21-22.631 51.21-50.536s-22.965-50.504-51.21-50.504c-28.277 0-51.21 22.598-51.21 50.504s22.933 50.536 51.21 50.536z" />
<glyph unicode="&#xe931;" glyph-name="grid-2x2" d="M418.454 391.117c20.164 0 36.661-16.497 36.661-36.661v0-381.795c0-20.164-16.497-36.661-36.661-36.661v0h-381.793c-20.164 0-36.661 16.497-36.661 36.661v0 381.795c0 20.164 16.497 36.661 36.661 36.661v0zM987.338 391.117c20.164 0 36.661-16.497 36.661-36.661v0-381.795c0-20.164-16.497-36.661-36.661-36.661v0h-381.793c-20.164 0-36.661 16.497-36.661 36.661v0 381.795c0 20.164 16.497 36.661 36.661 36.661v0zM418.454 959.999c20.164 0 36.661-16.497 36.661-36.661v0-381.795c0-20.164-16.497-36.661-36.661-36.661v0h-381.793c-20.164 0-36.661 16.497-36.661 36.661v0 381.795c0 20.164 16.497 36.661 36.661 36.661v0zM987.338 959.999c20.164 0 36.661-16.497 36.661-36.661v0-381.795c0-20.164-16.497-36.661-36.661-36.661v0h-381.793c-20.164 0-36.661 16.497-36.661 36.661v0 381.795c0 20.164 16.497 36.661 36.661 36.661v0z" />
<glyph unicode="&#xe932;" glyph-name="grid-3x3" d="M199.109 163.558c15.618 0 28.449-12.795 28.449-28.449v0-170.66c0-15.654-12.831-28.449-28.449-28.449v0h-170.66c-15.654 0-28.449 12.795-28.449 28.449v0 170.66c0 15.654 12.795 28.449 28.449 28.449v0zM995.551 163.558c15.618 0 28.449-12.795 28.449-28.449v0-170.66c0-15.654-12.831-28.449-28.449-28.449v0h-170.66c-15.654 0-28.449 12.795-28.449 28.449v0 170.66c0 15.654 12.795 28.449 28.449 28.449v0zM597.323 163.558c15.654 0 28.449-12.795 28.449-28.449v0-170.66c0-15.654-12.795-28.449-28.449-28.449v0h-170.66c-15.618 0-28.449 12.795-28.449 28.449v0 170.66c0 15.654 12.831 28.449 28.449 28.449v0zM199.109 561.768c15.618 0 28.449-12.795 28.449-28.449v0-170.66c0-15.618-12.831-28.449-28.449-28.449v0h-170.66c-15.654 0-28.449 12.831-28.449 28.449v0 170.66c0 15.654 12.795 28.449 28.449 28.449v0zM995.551 561.768c15.618 0 28.449-12.795 28.449-28.449v0-170.66c0-15.618-12.831-28.449-28.449-28.449v0h-170.66c-15.654 0-28.449 12.831-28.449 28.449v0 170.66c0 15.654 12.795 28.449 28.449 28.449v0zM597.323 561.768c15.654 0 28.449-12.795 28.449-28.449v0-170.66c0-15.618-12.795-28.449-28.449-28.449v0h-170.66c-15.618 0-28.449 12.831-28.449 28.449v0 170.66c0 15.654 12.831 28.449 28.449 28.449v0zM199.109 959.997c15.618 0 28.449-12.795 28.449-28.449v0-170.66c0-15.654-12.831-28.449-28.449-28.449v0h-170.66c-15.654 0-28.449 12.795-28.449 28.449v0 170.66c0 15.654 12.795 28.449 28.449 28.449v0zM995.543 960c15.654 0 28.449-12.831 28.449-28.449v0-170.66c0-15.654-12.795-28.449-28.449-28.449v0h-170.66c-15.654 0-28.449 12.795-28.449 28.449v0 170.66c0 15.618 12.795 28.449 28.449 28.449v0zM597.323 959.997c15.654 0 28.449-12.795 28.449-28.449v0-170.66c0-15.654-12.795-28.449-28.449-28.449v0h-170.66c-15.618 0-28.449 12.795-28.449 28.449v0 170.66c0 15.654 12.831 28.449 28.449 28.449v0z" />
<glyph unicode="&#xe933;" glyph-name="headphones" d="M227.577 277.355c62.581 0 113.761-51.216 113.761-113.797v0-113.76c0-62.581-51.18-113.797-113.761-113.797v0h-28.449c-15.618 0-28.449 12.831-28.449 28.449v0 284.455c0 15.618 12.831 28.449 28.449 28.449v0zM824.893 277.355c15.654 0 28.449-12.831 28.449-28.449v-284.455c0-15.618-12.795-28.449-28.449-28.449h-28.449c-62.581 0-113.761 51.216-113.761 113.797v113.76c0 62.581 51.18 113.797 113.761 113.797h28.449zM512.017 960c282.295 0 511.981-229.683 511.981-511.975v0-483.564c0-15.654-12.795-28.449-28.449-28.449v0h-56.862c-15.654 0-28.449 12.795-28.449 28.449v0 483.564c0 219.565-178.653 398.179-398.22 398.179-219.604 0-398.22-178.614-398.22-398.179v0-483.564c0-15.654-12.795-28.449-28.449-28.449v0h-56.899c-15.618 0-28.449 12.795-28.449 28.449v0 483.564c0 282.292 229.686 511.975 512.019 511.975z" />
<glyph unicode="&#xe934;" glyph-name="heart" d="M940.688 419.070c111.083 109.062 111.083 286.082 0 395.181-111.011 109.026-291.2 108.99-402.209-0.072-9.789-9.564-18.404-19.886-26.433-30.459-8.066 10.611-16.718 20.897-26.507 30.533-111.011 109.026-291.2 108.99-402.209-0.072-111.12-109.136-111.083-286.046-0.036-395.073l426.699-419.108 430.695 419.072z" />
<glyph unicode="&#xe935;" glyph-name="history" d="M511.982 959.999c141.184 0 269.207-57.414 361.888-150.135 92.718-92.685 150.13-220.749 150.13-361.864 0-282.341-229.65-511.999-512.018-511.999-139.095 0-267.923 56.68-361.705 150.282v0l80.362 80.365c72.957-72.775 173.154-116.881 281.342-116.881 219.604 0 398.257 178.659 398.257 398.234 0 109.806-44.691 209.346-116.805 281.462-72.114 72.079-171.651 116.772-281.452 116.772-121.497 0-234.012-55.362-308.471-146.616v0l137.848-137.853h-341.357v341.333l122.596-122.565c95.724 112.042 237.129 179.466 389.384 179.466zM511.993 732.458v-227.568h113.797v-113.802h-227.559v341.369h113.761z" />
<glyph unicode="&#xe936;" glyph-name="home-narrow" d="M512 960l-512-512h127.98v-512h255.999v192.031c0 70.692 57.329 127.98 128.021 127.98s128.021-57.288 128.021-127.98v-192.031h255.958v512h128.021l-512 512z" />
<glyph unicode="&#xe937;" glyph-name="home-wide" d="M921.585 447.998v149.326h-153.592l-256.008 248.898-511.985-497.794h102.384v-298.651h307.216v248.898h204.767v-248.898h307.216v298.651h102.416z" />
<glyph unicode="&#xe938;" glyph-name="image" d="M947.185 846.222c42.367 0 76.815-33.489 76.815-74.679v0-647.087c0-41.189-34.448-74.679-76.815-74.679v0h-870.404c-42.333 0-76.781 33.489-76.781 74.679v0 647.087c0 41.189 34.448 74.679 76.781 74.679v0zM921.58 746.65h-819.194v-597.302l237.902 231.286c9.932 9.656 26.265 9.656 36.197 0v0l84.305-81.96 460.791 447.977zM297.224 632.874c44.791 0 81.083-35.779 81.083-79.979s-36.292-80.013-81.083-80.013c-44.791 0-81.083 35.813-81.083 80.013s36.292 79.979 81.083 79.979z" />
<glyph unicode="&#xe939;" glyph-name="instagram" d="M572.125 959.996c85.781-0.191 105.454-0.938 150.951-3.018 54.532-2.496 91.719-11.137 124.298-23.81 33.667-13.122 62.213-30.595 90.696-59.076s45.956-56.964 59.076-90.696c12.673-32.578 21.314-69.766 23.81-124.298 0.521-11.374 0.957-21.135 1.322-30.716l0.405-11.506c0.87-27.077 1.22-57.267 1.316-122.102v-93.507c-0.090-60.186-0.398-90.529-1.137-116.246l-0.374-11.633c-0.405-11.488-0.909-22.817-1.533-36.466-2.496-54.532-11.137-91.783-23.81-124.298-13.122-33.73-30.595-62.213-59.076-90.696s-57.029-46.019-90.696-59.076c-32.578-12.673-69.766-21.314-124.298-23.81-47.771-2.184-67.072-2.898-164.326-3.042h-93.526c-60.206 0.090-90.54 0.398-116.261 1.137l-11.635 0.374c-11.492 0.405-22.829 0.909-36.493 1.533-54.468 2.496-91.719 11.137-124.234 23.81-33.667 13.057-62.277 30.595-90.696 59.076-28.483 28.483-46.019 56.964-59.076 90.696-12.673 32.515-21.314 69.766-23.81 124.298-2.081 45.497-2.826 65.215-3.018 150.974v120.253c0.191 85.781 0.938 105.454 3.018 150.951 2.496 54.532 11.137 91.719 23.81 124.298 13.057 33.73 30.595 62.213 59.076 90.696 28.418 28.483 57.029 45.956 90.696 59.076 32.515 12.673 69.766 21.314 124.234 23.81 45.55 2.081 65.231 2.826 151.016 3.018zM543.747 867.806h-63.52c-73.579-0.066-105.235-0.398-133.626-1.31l-11.273-0.396c-9.403-0.357-19.016-0.783-30.269-1.29-49.924-2.304-76.998-10.625-95.048-17.665-23.937-9.281-40.964-20.354-58.884-38.276s-29.059-34.947-38.339-58.884c-6.977-18.049-15.297-45.124-17.601-95.048-0.416-9.004-0.777-16.956-1.089-24.591l-0.624-16.951c-0.915-28.391-1.223-60.047-1.283-133.626v-63.52c0.060-73.579 0.368-105.235 1.283-133.626l0.399-11.273c0.362-9.403 0.795-19.016 1.316-30.269 2.304-49.924 10.625-77.063 17.601-95.048 9.281-23.937 20.418-40.964 38.339-58.884s34.947-28.994 58.884-38.276c18.049-7.040 45.124-15.361 95.048-17.665 47.267-2.129 65.575-2.835 161-2.979h91.855c95.426 0.144 113.733 0.851 161 2.979 49.859 2.304 76.998 10.625 95.048 17.665 23.937 9.281 40.964 20.354 58.884 38.276s28.994 34.947 38.339 58.884c6.977 17.985 15.297 45.124 17.601 95.048 2.027 45.017 2.72 63.766 2.895 147.882v118.094c-0.176 84.116-0.869 102.865-2.895 147.882-2.304 49.924-10.625 76.998-17.601 95.048-9.344 23.937-20.418 40.964-38.339 58.884s-34.947 28.994-58.884 38.276c-18.049 7.040-45.188 15.361-95.048 17.665-11.254 0.507-20.867 0.933-30.269 1.29l-11.273 0.396c-28.391 0.912-60.047 1.244-133.626 1.31zM511.974 710.904c145.228 0 262.934-117.641 262.934-262.869 0-145.291-117.705-262.934-262.934-262.934s-262.934 117.641-262.934 262.934c0 145.228 117.705 262.869 262.934 262.869zM511.974 618.672c-94.28 0-170.702-76.422-170.702-170.637 0-94.28 76.422-170.702 170.702-170.702s170.702 76.422 170.702 170.702c0 94.215-76.422 170.637-170.702 170.637zM785.308 782.781c33.922 0 61.445-27.523 61.445-61.445s-27.523-61.445-61.445-61.445c-33.922 0-61.445 27.523-61.445 61.445s27.523 61.445 61.445 61.445z" />
<glyph unicode="&#xe93a;" glyph-name="heat-pump" d="M257.167 222.684c-33.032 0-61.147 12.382-84.345 37.147-23.198 24.783-34.797 54.078-34.797 87.884v332.679h60.165v-337.379c0-16.516 5.899-30.673 17.696-42.47s25.954-17.696 42.47-17.696c16.516 0 30.474 5.899 41.875 17.696s17.101 25.954 17.101 42.47v211.159c0 33.825 11.599 63.318 34.797 88.479 23.217 25.161 51.341 37.742 84.373 37.742 34.598 0 63.497-12.581 86.695-37.742s34.797-54.654 34.797-88.479v-211.159c0-16.516 5.7-30.673 17.101-42.47 11.419-11.797 25.387-17.696 41.904-17.696s30.673 5.899 42.47 17.696c11.797 11.797 17.696 25.954 17.696 42.47v259.518c0 34.618 11.797 64.11 35.391 88.479 23.594 24.387 53.087 36.58 88.479 36.58h108.524l-73.133 71.972 41.28 42.47 146.294-145.105-146.294-143.944-41.28 42.47 73.133 71.972h-108.524c-18.101 0-33.24-6.295-45.415-18.885-12.193-12.571-18.29-27.907-18.29-46.009v-254.818c0-33.806-11.608-63.101-34.825-87.884-23.198-24.765-51.699-37.147-85.506-37.147-33.825 0-62.336 12.382-85.534 37.147-23.198 24.783-34.797 54.078-34.797 87.884v212.349c0 16.516-5.7 30.673-17.101 42.47-11.419 11.797-25.387 17.696-41.904 17.696s-30.474-5.899-41.875-17.696c-11.401-11.797-17.101-25.954-17.101-42.47v-212.349c0-33.806-11.797-63.101-35.391-87.884-23.594-24.765-52.304-37.147-86.128-37.147zM88.478 53.966c-24.387 0-45.226 8.655-62.516 25.963-17.308 17.308-25.963 38.147-25.963 62.516v329.14h963.836v-329.14c0-24.368-8.853-45.206-26.558-62.516-17.686-17.308-38.723-25.963-63.11-25.963h-785.689zM88.478 114.132h785.689c8.645 0 15.723 2.756 21.235 8.268s8.268 12.193 8.268 20.046v268.975h-843.505v-268.975c0-7.852 2.756-14.534 8.268-20.046 5.493-5.511 12.175-8.268 20.046-8.268zM874.167 411.419v0z" />
<glyph unicode="&#xe93b;" glyph-name="link-away" d="M1024 561.78l-455.119 398.22v-232.912c-568.881-136.638-568.881-791.088-568.881-791.088s198.010 460.032 568.881 460.032v-232.473l455.119 398.22z" />
<glyph unicode="&#xe93c;" glyph-name="link" d="M309.14 570.206l81.158-81.187-263.734-263.909 162.278-162.408 263.697 263.909 81.158-81.187-283.995-284.224c-16.232-16.245-37.824-25.2-60.86-25.2-22.997 0-44.627 8.955-60.86 25.2v0l-202.838 203.001c-16.232 16.245-25.142 37.892-25.142 60.908s8.911 44.664 25.142 60.908v0l283.995 284.185zM643.553 661.272l81.122-81.187-344.263-344.538-81.122 81.223 344.263 344.502zM674.264 935.634c32.463 32.489 89.255 32.489 121.718 0v0l202.838-203.001c16.232-16.245 25.178-37.854 25.178-60.908s-8.948-44.664-25.178-60.908v0l-284.032-284.185-81.083 81.187 263.697 263.909-162.278 162.408-263.697-263.945-81.122 81.223z" />
<glyph unicode="&#xe93d;" glyph-name="linkedin" d="M232.477 618.91v-660.317h-219.593v660.317h219.593zM771.253 634.425c144.39 0 252.747-94.341 252.747-297.229v0-378.576h-219.466v353.295c0 88.708-31.809 149.383-111.3 149.383-60.547 0-96.708-41.025-112.644-80.387-5.76-14.144-7.232-33.666-7.232-53.506v0-368.784h-219.466l0.029 6.218c0.006 1.355 0.014 2.921 0.021 4.691l0.057 12.982c0.21 48.367 0.681 163.479 0.95 283.058l0.077 37.838 0.060 37.7c0.009 6.248 0.017 12.472 0.023 18.661l-0.014 122.032c-0.119 68.683-0.471 121.045-1.203 137.136v0h219.466v-93.508c29.25 45.057 81.412 108.996 197.896 108.996zM124.101 937.407c75.14 0 121.349-49.346 122.758-114.18 0-63.298-47.618-114.117-124.165-114.117v0h-1.472c-73.604 0-121.222 50.818-121.222 114.117 0 64.834 49.090 114.18 124.102 114.18z" />
<glyph unicode="&#xe93e;" glyph-name="lock" d="M362.65 550.4v153.592c0 84.699 66.983 153.592 149.331 153.592s149.364-68.893 149.364-153.592v-153.592h-298.695zM511.982 217.612c-41.223 0-74.649 34.381-74.649 76.78 0 42.432 33.427 76.812 74.649 76.812 41.255 0 74.681-34.381 74.681-76.812 0-42.399-33.427-76.78-74.681-76.78v0zM885.326 550.4h-124.437v153.592c0 141.152-111.669 256.008-248.907 256.008s-248.907-114.856-248.907-256.008v-153.592h-124.405c-13.699 0-24.893-11.548-24.893-25.604v-179.196c0-226.213 178.267-409.6 398.207-409.6s398.239 183.387 398.239 409.6v179.196c0 14.056-11.196 25.604-24.893 25.604v0z" />
<glyph unicode="&#xe93f;" glyph-name="microphone-mute" d="M150.855 893.813l792.304-819.197-70.014-72.427-153.974 159.207c-45.315-35.141-99.086-58.964-157.644-67.708v0-55.301l99.022-102.387h-297.098l99.022 102.387v55.301c-167.696 24.978-297.098 174.122-297.098 354.314v0h99.053c0-141.158 111.053-256.017 247.571-256.017 50.389 0 97.203 15.772 136.327 42.632v0l-72.536 75c-19.371-9.635-40.943-15.211-63.791-15.211-81.694 0-148.549 69.128-148.549 153.598v0 81.204l-282.609 292.182 70.014 72.427zM858.631 448.004c0-52.035-11.010-101.365-30.38-146.009v0l-77.322 79.95c5.457 21.118 8.648 43.193 8.648 66.058v0zM512.004 960c81.694 0 148.549-69.094 148.549-153.598v0-330.986l-297.098 307.196v23.79c0 84.503 66.855 153.598 148.549 153.598z" />
<glyph unicode="&#xe940;" glyph-name="microphone-on" d="M255.985 448.005c0-141.158 114.858-256.019 256.014-256.019s256.014 114.86 256.014 256.019v0h102.386c0-180.193-133.797-329.336-307.19-354.315v0-55.302l102.386-102.388h-307.19l102.386 102.388v55.302c-173.359 24.978-307.19 174.122-307.19 354.315v0zM512.005 960c84.469 0 153.595-69.095 153.595-153.597v0-358.406c0-84.47-69.126-153.597-153.595-153.597s-153.595 69.127-153.595 153.597v0 358.406c0 84.504 69.126 153.597 153.595 153.597z" />
<glyph unicode="&#xe941;" glyph-name="more-horizontal" d="M256 448c0-70.392-57.576-127.999-128.020-127.999-70.402 0-127.98 57.607-127.98 127.999s57.576 127.999 127.98 127.999c70.444 0 128.020-57.607 128.020-127.999zM639.999 448c0-70.392-57.576-127.999-128.020-127.999-70.402 0-127.98 57.607-127.98 127.999s57.576 127.999 127.98 127.999c70.444 0 128.020-57.607 128.020-127.999zM1023.999 448c0-70.392-57.576-127.999-128.020-127.999-70.402 0-127.98 57.607-127.98 127.999s57.576 127.999 127.98 127.999c70.444 0 128.020-57.607 128.020-127.999z" />
<glyph unicode="&#xe942;" glyph-name="more-vertical" d="M512 192c70.392 0 127.999-57.576 127.999-128.020 0-70.402-57.607-127.98-127.999-127.98s-127.999 57.576-127.999 127.98c0 70.444 57.607 128.020 127.999 128.020zM512 575.999c70.392 0 127.999-57.576 127.999-128.020 0-70.402-57.607-127.98-127.999-127.98s-127.999 57.576-127.999 127.98c0 70.444 57.607 128.020 127.999 128.020zM512 959.999c70.392 0 127.999-57.576 127.999-128.020 0-70.402-57.607-127.98-127.999-127.98s-127.999 57.576-127.999 127.98c0 70.444 57.607 128.020 127.999 128.020z" />
<glyph unicode="&#xe943;" glyph-name="lock1" d="M217.938-64c-28.021 0-51.652 9.621-70.892 28.861-19.262 19.262-28.893 42.462-28.893 69.601v481.784c0 28.021 9.631 51.652 28.893 70.892 19.241 19.262 42.872 28.893 70.892 28.893h63.016v111.6c0 64.759 22.528 119.676 67.584 164.753 45.077 45.077 99.565 67.616 163.462 67.616s118.385-22.539 163.462-67.616c45.056-45.077 67.584-99.995 67.584-164.753v-111.6h63.016c28.021 0 51.652-9.631 70.892-28.893 19.262-19.241 28.893-42.872 28.893-70.892v-481.784c0-27.138-9.631-50.339-28.893-69.601-19.241-19.241-42.872-28.861-70.892-28.861h-588.123zM217.938 2.955h588.123c9.641 0 17.518 3.056 23.631 9.169 6.134 6.134 9.2 13.58 9.2 22.338v481.784c0 9.641-3.066 17.518-9.2 23.631-6.113 6.134-13.989 9.2-23.631 9.2h-588.123c-9.641 0-17.518-3.066-23.631-9.2-6.134-6.113-9.2-13.989-9.2-23.631v-481.784c0-8.759 3.066-16.206 9.2-22.338 6.113-6.113 13.989-9.169 23.631-9.169zM512 184.124c25.374 0 46.6 8.749 63.677 26.246 17.056 17.497 25.585 38.502 25.585 63.016s-8.749 45.739-26.246 63.677c-17.497 17.939-38.502 26.908-63.016 26.908-25.374 0-46.6-8.969-63.677-26.908-17.056-17.939-25.585-39.164-25.585-63.677s8.749-45.518 26.246-63.016c17.497-17.497 38.502-26.246 63.016-26.246v0zM349.2 616.031h325.601v111.6c0 45.497-15.754 84.22-47.261 116.169s-70.021 47.923-115.539 47.923c-45.518 0-84.031-15.974-115.539-47.923s-47.261-70.672-47.261-116.169v-111.6zM185.108 2.955v0z" />
<glyph unicode="&#xe944;" glyph-name="pause" d="M307.81 960c18.406 0 33.53-14.436 33.53-32.006v-959.989c0-17.57-15.123-32.006-33.53-32.006h-201.137c-18.451 0-33.53 14.436-33.53 32.006v959.989c0 17.57 15.081 32.006 33.53 32.006h201.137zM917.327 960c18.451 0 33.53-14.436 33.53-32.006v-959.989c0-17.57-15.081-32.006-33.53-32.006h-201.137c-18.406 0-33.53 14.436-33.53 32.006v959.989c0 17.57 15.123 32.006 33.53 32.006h201.137z" />
<glyph unicode="&#xe945;" glyph-name="local-laundry" d="M210.992-64c-28.683 0-52.872 9.858-72.567 29.575-19.717 19.695-29.575 43.432-29.575 71.212v822.425c0 27.78 9.858 51.517 29.575 71.212 19.695 19.717 43.884 29.575 72.567 29.575h602.015c28.683 0 52.872-9.858 72.567-29.575 19.717-19.695 29.575-43.432 29.575-71.212v-822.425c0-27.78-9.858-51.517-29.575-71.212-19.695-19.717-43.884-29.575-72.567-29.575h-602.015zM210.992 4.536h602.015c8.063 0 15.686 3.354 22.867 10.063 7.16 6.73 10.74 14.126 10.74 22.189v822.425c0 8.063-3.58 15.46-10.74 22.189-7.181 6.708-14.804 10.063-22.867 10.063h-602.015c-8.063 0-15.686-3.354-22.867-10.063-7.16-6.73-10.74-14.126-10.74-22.189v-822.425c0-8.063 3.58-15.46 10.74-22.189 7.181-6.708 14.804-10.063 22.867-10.063zM513.354 93.229c67.192 0 124.525 23.737 172 71.212 47.475 47.496 71.212 105.282 71.212 173.354 0 68.095-23.737 125.879-71.212 173.354-47.475 47.496-105.259 71.245-173.354 71.245s-125.879-23.963-173.354-71.89c-47.475-47.948-71.212-105.517-71.212-172.709s24.189-124.751 72.567-172.677c48.378-47.926 106.162-71.89 173.354-71.89zM512 184.599c-20.598 0-40.078 3.817-58.441 11.449-18.384 7.611-35.187 18.577-50.41 32.897l217.701 216.378c15.223-13.438 26.425-29.564 33.607-48.378 7.16-18.814 10.74-38.53 10.74-59.15 0-43.884-14.557-80.383-43.669-109.495-29.112-29.135-65.622-43.701-109.528-43.701zM290.267 720.788c16.126 0 30.241 6.052 42.347 18.158 12.083 12.083 18.126 26.189 18.126 42.315s-6.042 30.241-18.126 42.347c-12.106 12.083-26.221 18.126-42.347 18.126s-30.241-6.042-42.347-18.126c-12.083-12.106-18.126-26.221-18.126-42.347s6.042-30.231 18.126-42.315c12.106-12.106 26.221-18.158 42.347-18.158zM471.685 720.788c16.126 0 30.231 6.052 42.315 18.158 12.106 12.083 18.158 26.189 18.158 42.315s-6.052 30.241-18.158 42.347c-12.083 12.083-26.189 18.126-42.315 18.126s-30.231-6.042-42.315-18.126c-12.106-12.106-18.158-26.221-18.158-42.347s6.052-30.231 18.158-42.315c12.083-12.106 26.189-18.158 42.315-18.158zM177.385 4.536v0z" />
<glyph unicode="&#xe946;" glyph-name="phone" d="M958.047 278.276c-6.342 1.503-12.904 2.457-19.687 2.457-0.294 0-0.55-0.073-0.88-0.073-96.897 12.171-187.525 44.508-267.484 92.827l-123.954-126.703c-91.618 61.774-171.027 144.337-232.802 229.649v0l124.137 126.739c-48.357 79.959-80.583 172.017-92.791 268.913 0 0.33 0.147 1.282 0.147 1.576 0 6.783-0.99 13.711-2.493 20.053-8.908 37.725-42.601 66.285-83.112 66.285h-173.52c-46.56 0-84.322-37.248-85.422-83.589 0-0.66-0.183-1.356-0.183-2.053 0-4.986 0.622-9.789 1.429-14.518 17.89-186.571 85.312-357.892 188.734-501.312 64.524-89.418 143.091-167.911 232.508-232.361 143.568-103.495 314.924-170.77 500.945-188.698 4.803-0.843 9.715-1.467 14.737-1.467 0.696 0 1.393 0.183 2.127 0.22 46.303 1.137 83.515 38.824 83.515 85.386v173.52c0 40.474-28.192 74.239-65.955 83.149z" />
<glyph unicode="&#xe947;" glyph-name="pin" d="M511.995 422.413c-74.637 0-135.097 57.313-135.097 127.988s60.462 128.020 135.097 128.020c74.637 0 135.097-57.345 135.097-128.020s-60.462-127.988-135.097-127.988zM817.716 835.576c-168.847 165.899-442.595 165.899-611.407 0-168.881-165.899-168.881-434.94 0-600.806l305.686-298.77 305.721 298.77c168.847 165.866 168.847 434.907 0 600.806z" />
<glyph unicode="&#xe948;" glyph-name="pinterest" d="M535.999 959.999c-279.488 0-420.353-200.321-420.353-367.424 0-101.184 38.208-191.168 120.384-224.705 13.44-5.504 25.601-0.192 29.441 14.72 2.753 10.304 9.152 36.353 12.032 47.232 3.905 14.72 2.432 19.904-8.448 32.768-23.681 27.968-38.784 64.064-38.784 115.328 0 148.673 111.168 281.729 289.537 281.729 157.952 0 244.736-96.512 244.736-225.408 0-169.601-75.072-312.769-186.497-312.769-61.568 0-107.52 50.945-92.801 113.345 17.664 74.496 51.905 154.88 51.905 208.704 0 48.128-25.793 88.32-79.296 88.32-62.912 0-113.472-65.088-113.472-152.256 0-55.553 18.816-93.056 18.816-93.056s-64.385-272.768-75.713-320.513c-22.464-95.168-3.392-211.776-1.728-223.553 0.896-6.977 9.92-8.64 14.016-3.329 5.696 7.553 80.64 100.032 106.176 192.449 7.169 26.177 41.345 161.729 41.345 161.729 20.48-39.041 80.192-73.344 143.681-73.344 189.056 0 317.377 172.352 317.377 403.073 0 174.464-147.776 336.961-372.353 336.961z" />
<glyph unicode="&#xe949;" glyph-name="play" d="M868.65 470.256l-3.358 2.419-675.714 484.906c-3.682 1.558-7.647 2.419-11.895 2.419-17.316 0-31.397-14.223-31.397-31.809v-960.383c0-17.585 14.079-31.809 31.397-31.809 4.248 0 8.213 0.902 11.895 2.419l679.072 487.325c5.542 5.738 9.063 13.567 9.063 22.257s-3.519 16.519-9.063 22.257z" />
<glyph unicode="&#xe94a;" glyph-name="plus" d="M1023.999 504.88h-455.119v455.119h-113.761v-455.119h-455.119v-113.797h455.119v-455.082h113.761v455.082h455.119z" />
<glyph unicode="&#xe94b;" glyph-name="printer" d="M796.441 163.559v-227.559h-568.881v227.559h568.881zM767.992 960c15.654 0 28.449-12.795 28.449-28.449v0-312.872h199.11c15.654 0 28.449-12.795 28.449-28.449v0-511.982c0-15.654-12.795-28.449-28.449-28.449v0h-142.211v142.211c0 15.618-12.831 28.413-28.449 28.413v0h-625.781c-15.618 0-28.449-12.795-28.449-28.413v0-142.211h-142.211c-15.654 0-28.449 12.795-28.449 28.449v0 511.982c0 15.654 12.795 28.449 28.449 28.449v0h199.11v312.872c0 15.654 12.795 28.449 28.449 28.449v0zM910.202 504.918h-113.798v-56.9h113.798v56.9zM739.541 903.102h-455.12v-284.423h455.12v284.423z" />
<glyph unicode="&#xe94c;" glyph-name="refresh" d="M341.321 334.219l-137.813-137.849c74.498-91.215 186.939-146.61 308.474-146.61 109.803 0 209.34 44.691 281.454 116.805 46.158 46.121 80.84 103.569 100.014 167.655v0h117.356c-21.777-95.504-69.951-181.109-136.932-248.090-92.682-92.754-220.704-150.131-361.89-150.131-152.258 0-293.663 67.458-389.423 179.423v0l-122.561-122.523v341.321h341.322zM511.979 960c152.294 0 293.699-67.458 389.46-179.46v0l122.561 122.561v-341.321h-341.322l137.813 137.849c-74.498 91.215-186.939 146.61-308.51 146.61-109.766 0-209.303-44.691-281.417-116.805-46.56-46.524-81.426-102.983-100.454-167.655v0h-117.026c21.704 95.798 69.951 180.999 137.042 248.090 92.682 92.718 220.704 150.131 361.853 150.131z" />
<glyph unicode="&#xe94d;" glyph-name="repeat" d="M1023.999 511.986c0-247.016-178.655-448.002-398.223-448.002v0h-284.424v-127.983l-170.663 191.996 170.663 191.996v-127.983h284.424c156.84 0 284.46 143.532 284.46 319.979v0zM682.683 960l170.663-191.996-170.663-192.036v128.024h-284.46c-156.84 0-284.424-143.532-284.424-319.979v0h-113.799c0 247.016 178.655 448.002 398.223 448.002v0h284.46v127.983z" />
<glyph unicode="&#xe94e;" glyph-name="return" d="M691.202 732.448h-486.395v170.664l-204.807-227.528 204.807-227.565v170.664h486.395c127.068 0 230.412-114.827 230.412-256.015s-103.344-256.015-230.412-256.015h-486.395v-113.764h486.395c183.524 0 332.799 165.899 332.799 369.779 0 203.917-149.275 369.779-332.799 369.779z" />
<glyph unicode="&#xe94f;" glyph-name="shower" d="M284.274 145.554c-13.97 0-26.074 4.884-36.312 14.652-10.238 9.79-15.356 21.671-15.356 35.641s5.119 26.074 15.356 36.312c10.238 10.238 22.341 15.356 36.312 15.356s25.851-5.119 35.641-15.356c9.768-10.238 14.652-22.341 14.652-36.312s-4.884-25.851-14.652-35.641c-9.79-9.768-21.671-14.652-35.641-14.652zM512.001 145.554c-14.909 0-27.013 4.884-36.312 14.652-9.321 9.79-13.981 21.671-13.981 35.641s4.895 26.074 14.685 36.312c9.768 10.238 21.637 15.356 35.607 15.356 14.909 0 27.247-5.119 37.016-15.356 9.79-10.238 14.685-22.341 14.685-36.312s-5.13-25.851-15.39-35.641c-10.238-9.768-22.341-14.652-36.312-14.652zM739.728 145.554c-13.97 0-25.851 4.884-35.641 14.652-9.768 9.79-14.652 21.671-14.652 35.641s4.884 26.074 14.652 36.312c9.79 10.238 21.671 15.356 35.641 15.356s26.074-5.119 36.312-15.356c10.238-10.238 15.356-22.341 15.356-36.312s-5.119-25.851-15.356-35.641c-10.238-9.768-22.341-14.652-36.312-14.652zM148.785 408.184v72.657c0 94.059 31.662 175.545 94.986 244.458 63.325 68.935 141.089 107.594 233.292 115.976v118.725h71.249v-118.725c91.288-8.382 168.593-47.041 231.918-115.976 63.325-68.912 94.986-150.399 94.986-244.458v-72.657h-726.433zM220.033 480.841h583.936c0 79.15-28.634 147.37-85.901 204.659-57.289 57.267-125.978 85.901-206.067 85.901s-148.778-28.634-206.067-85.901c-57.267-57.289-85.901-125.509-85.901-204.659zM284.274-64c-13.97 0-26.074 4.884-36.312 14.652-10.238 9.79-15.356 21.671-15.356 35.641 0 14.886 5.119 27.225 15.356 37.016 10.238 9.768 22.341 14.652 36.312 14.652s25.851-4.884 35.641-14.652c9.768-9.79 14.652-22.129 14.652-37.016 0-13.97-4.884-25.851-14.652-35.641-9.79-9.768-21.671-14.652-35.641-14.652zM512.001-64c-14.909 0-27.013 4.884-36.312 14.652-9.321 9.79-13.981 21.671-13.981 35.641 0 14.886 4.895 27.225 14.685 37.016 9.768 9.768 21.637 14.652 35.607 14.652 14.909 0 27.247-4.884 37.016-14.652 9.79-9.79 14.685-22.129 14.685-37.016 0-13.97-5.13-25.851-15.39-35.641-10.238-9.768-22.341-14.652-36.312-14.652zM739.728-64c-13.97 0-25.851 4.884-35.641 14.652-9.768 9.79-14.652 21.671-14.652 35.641 0 14.886 4.884 27.225 14.652 37.016 9.79 9.768 21.671 14.652 35.641 14.652s26.074-4.884 36.312-14.652c10.238-9.79 15.356-22.129 15.356-37.016 0-13.97-5.119-25.851-15.356-35.641-10.238-9.768-22.341-14.652-36.312-14.652z" />
<glyph unicode="&#xe950;" glyph-name="rotate-clockwise" d="M1023.999 561.78h-341.32l137.811 137.848c-74.496 91.251-186.939 146.61-308.472 146.61-109.765 0-209.338-44.653-281.452-116.805-72.114-72.114-116.767-171.651-116.767-281.416 0-219.604 178.653-398.22 398.22-398.22 108.225 0 208.422 44.104 281.305 116.841l80.4-80.362c-93.781-93.523-222.61-150.276-361.705-150.276-282.369 0-512.019 229.686-512.019 512.019 0 141.148 57.448 269.17 150.13 361.851 92.718 92.718 220.704 150.13 361.888 150.13 152.256 0 293.661-67.458 389.421-179.46l122.56 122.596v-341.358z" />
<glyph unicode="&#xe951;" glyph-name="rotate-counter-clockwise" d="M0.001 561.78h341.32l-137.811 137.848c74.496 91.251 186.939 146.61 308.472 146.61 109.765 0 209.338-44.653 281.452-116.805 72.114-72.114 116.767-171.651 116.767-281.416 0-219.604-178.653-398.22-398.22-398.22-108.225 0-208.422 44.104-281.305 116.841l-80.4-80.362c93.781-93.523 222.61-150.276 361.705-150.276 282.369 0 512.019 229.686 512.019 512.019 0 141.148-57.448 269.17-150.13 361.851-92.718 92.718-220.704 150.13-361.888 150.13-152.256 0-293.661-67.458-389.421-179.46l-122.56 122.596v-341.358z" />
<glyph unicode="&#xe952;" glyph-name="directions-boat" d="M132.279 142.325l-77.22 279.717c-1.681 8.445-0.837 16.465 2.552 24.059 3.362 7.594 9.265 13.083 17.711 16.465l70.871 26.58v234.151c0 23.634 7.807 43.247 23.421 58.842 15.614 15.614 35.238 23.421 58.872 23.421h177.193v154.44h213.919v-154.44h178.468c22.783 0 42.184-7.807 58.203-23.421 16.039-15.593 24.059-35.207 24.059-58.842v-235.427l68.35-22.783c10.126-2.532 17.295-8.435 21.507-17.711 4.232-9.296 5.084-18.155 2.552-26.58l-79.741-278.471c-32.909 8.445-62.446 22.793-88.611 43.045s-54.851 47.673-86.060 82.263c-29.547-34.59-60.563-64.542-93.046-89.857s-69.818-37.972-112.003-37.972c-42.204 0-79.762 12.657-112.67 37.972s-64.127 55.267-93.655 89.857c-31.228-34.59-59.915-62.011-86.060-82.263-26.165-20.251-55.703-34.6-88.611-43.045zM20.885-64v51.915h81.017c36.292 0 72.157 5.478 107.598 16.435 35.44 10.977 68.35 27.016 98.727 48.118 30.378-21.103 63.074-36.716 98.090-46.842s70.669-15.189 106.959-15.189c36.27 0 71.712 5.063 106.322 15.189 34.59 10.126 67.074 25.74 97.451 46.842 31.228-21.103 64.137-37.142 98.727-48.118 34.59-10.956 70.030-16.435 106.322-16.435h81.017v-51.915h-81.017c-36.292 0-71.104 4.222-104.438 12.667-33.314 8.445-66.426 21.103-99.335 37.972-32.909-16.869-66.669-29.527-101.279-37.972-34.59-8.445-69.18-12.667-103.77-12.667-34.61 0-69.21 4.222-103.8 12.667s-68.34 21.103-101.249 37.972c-32.909-16.869-66.244-29.527-100.003-37.972s-69.2-12.667-106.322-12.667h-81.017zM196.832 505.581l315.168 102.524 316.444-103.77v218.962c0 9.275-2.956 16.869-8.87 22.783s-13.083 8.87-21.507 8.87h-569.581c-9.296 0-16.89-2.956-22.783-8.87-5.914-5.914-8.87-13.508-8.87-22.783v-217.716zM513.276 191.688c40.504 0 75.518 14.763 105.046 44.291 29.527 29.547 62.861 66.254 100.003 110.118 34.59-41.334 60.958-71.073 79.103-89.22s39.025-33.973 62.639-47.48l62.031 211.398-410.098 132.902-406.301-132.902 60.755-210.122c22.783 12.657 43.247 27.846 61.393 45.566s44.939 47.673 80.379 89.857c37.972-44.716 71.296-81.625 99.973-110.727 28.697-29.122 63.722-43.683 105.076-43.683z" />
<glyph unicode="&#xe953;" glyph-name="search" d="M113.798 504.88c0 188.221 153.099 341.32 341.32 341.32s341.358-153.099 341.358-341.32c0-188.221-153.136-341.358-341.358-341.358s-341.32 153.136-341.32 341.358v0zM1023.999 16.437l-209.815 209.815c59.979 77.062 96.054 173.629 96.054 278.629 0 250.95-204.169 455.119-455.119 455.119s-455.119-204.169-455.119-455.119c0-250.95 204.169-455.119 455.119-455.119 105 0 201.529 36.112 278.629 96.054l209.815-209.815 80.436 80.436z" />
<glyph unicode="&#xe954;" glyph-name="send" d="M1024 448l-1024 455.111 76.812-341.315 511.984-113.796-511.984-113.796-76.812-341.315z" />
<glyph unicode="&#xe955;" glyph-name="share" d="M792.001 21.315c-46.375 0-84.016 38.202-84.016 85.348 0 47.11 37.641 85.312 84.016 85.312s84.016-38.202 84.016-85.312c0-47.146-37.641-85.348-84.016-85.348zM231.997 362.673c-46.411 0-84.016 38.202-84.016 85.312s37.605 85.348 84.016 85.348c46.375 0 84.016-38.238 84.016-85.348s-37.641-85.312-84.016-85.312zM792.001 874.654c46.375 0 84.016-38.238 84.016-85.348s-37.641-85.312-84.016-85.312c-46.375 0-84.016 38.202-84.016 85.312s37.641 85.348 84.016 85.348zM792.001 277.324c-40.636 0-77.953-14.701-107.005-39.118l-288.357 175.756c2.202 10.998 3.357 22.401 3.357 34.021 0 11.658-1.155 23.023-3.357 34.021l288.357 175.756c29.052-24.417 66.369-39.118 107.005-39.118 92.787 0 167.997 76.402 167.997 170.661s-75.211 170.697-167.997 170.697c-92.787 0-167.997-76.44-167.997-170.697 0-11.622 1.155-23.023 3.357-34.021l-288.357-175.72c-29.052 24.417-66.369 39.081-107.005 39.081-92.787 0-167.997-76.402-167.997-170.661s75.211-170.661 167.997-170.661c40.636 0 77.953 14.701 107.005 39.118l288.357-175.756c-2.202-10.998-3.357-22.401-3.357-34.021 0-94.257 75.211-170.661 167.997-170.661s167.997 76.402 167.997 170.661c0 94.221-75.211 170.661-167.997 170.661z" />
<glyph unicode="&#xe956;" glyph-name="directions-car" d="M75.805 126.275v-95.926c0-8.241-3.093-15.195-9.281-20.864s-13.921-8.501-23.202-8.501h-10.84c-8.241 0-15.716 2.834-22.422 8.501s-10.060 12.621-10.060 20.864v468.677l128.409 366.589c2.054 8.266 7.462 15.233 16.223 20.9s18.301 8.501 28.622 8.501h682.134c9.281 0 17.794-2.834 25.54-8.501 7.722-5.667 12.61-12.634 14.663-20.9l128.409-366.589v-468.677c0-8.241-3.353-15.195-10.060-20.864s-14.701-8.501-23.981-8.501h-9.281c-9.281 0-17.014 2.834-23.202 8.501s-9.281 12.621-9.281 20.864v95.926h-872.39zM88.167 562.47h847.666l-95.926 270.663h-655.814l-95.926-270.663zM63.443 499.028v0zM219.657 274.767c19.601 0 36.355 6.954 50.265 20.864 13.934 13.934 20.9 30.181 20.9 48.742 0 20.615-7.227 37.63-21.68 51.044-14.429 13.389-30.924 20.083-49.485 20.083-19.601 0-36.355-6.694-50.265-20.083-13.934-13.414-20.9-29.921-20.9-49.522 0-19.577 6.967-36.331 20.9-50.265 13.908-13.908 30.664-20.864 50.265-20.864zM804.343 274.767c19.601 0 36.355 6.954 50.265 20.864 13.934 13.934 20.9 30.181 20.9 48.742 0 20.615-6.967 37.63-20.9 51.044-13.908 13.389-30.144 20.083-48.706 20.083-19.601 0-36.615-6.694-51.044-20.083-14.453-13.414-21.68-29.921-21.68-49.522 0-19.577 7.474-36.331 22.422-50.265 14.973-13.908 31.22-20.864 48.742-20.864v0zM63.443 188.123h897.113v310.905h-897.113v-310.905z" />
<glyph unicode="&#xe957;" glyph-name="shuffle" d="M588.086 370.921l51.84-78.493c23.61-35.836 84.652-68.424 128.061-68.424v0h85.35v112.020l170.662-168.030-170.662-167.994v111.984h-85.35c-82.489 0-178.582 51.354-223.456 119.418v0l-24.307 36.774 67.861 102.745zM853.352 896l170.626-167.994-170.626-168.030v112.020h-85.35c-43.408 0-104.451-32.587-128.098-68.424v0l-245.748-372.184c-44.947-68.064-141.003-119.382-223.494-119.382v0h-170.662v111.984h170.662c43.408 0 104.451 32.625 128.098 68.424v0l245.748 372.184c44.911 68.064 141.003 119.418 223.494 119.418v0h85.35v111.984zM170.671 783.998c82.417 0 178.545-51.318 223.494-119.382v0l24.27-36.81-67.825-102.745-51.84 78.529c-23.683 35.8-84.726 68.424-128.098 68.424v0h-170.662v111.984z" />
<glyph unicode="&#xe958;" glyph-name="sell" d="M557.906-62.977c-8.927 0-17.639 1.566-26.136 4.699s-16.319 8.272-23.465 15.418l-488.188 486.837c-8.047 7.146-13.411 15.193-16.094 24.141s-4.023 17.885-4.023 26.812v395.649c0 18.776 6.706 34.87 20.117 48.281s29.505 20.117 48.281 20.117h395.649c8.927 0 17.639-1.566 26.136-4.699s16.77-8.272 24.817-15.418l486.837-484.165c14.312-15.193 21.694-32.402 22.145-51.629 0.43-19.227-6.953-35.986-22.145-50.277l-395.649-395.649c-6.244-6.266-13.615-11.18-22.113-14.742-8.498-3.584-17.22-5.375-26.168-5.375zM559.258 4.069l396.969 397.001-490.86 489.508h-396.969v-395.649l490.86-490.86zM206.547 692.078c16.974 0 31.501 6.040 43.582 18.122 12.059 12.059 18.089 26.587 18.089 43.582 0 17.875-6.030 32.627-18.089 44.258-12.081 11.631-26.608 17.446-43.582 17.446-17.896 0-32.649-5.815-44.258-17.446-11.631-11.631-17.446-25.932-17.446-42.906 0-16.995 5.815-31.748 17.446-44.258 11.609-12.532 26.362-18.798 44.258-18.798v0z" />
<glyph unicode="&#xe959;" glyph-name="star" d="M511.998 960l142.217-398.22h369.785l-312.884-227.559 117.323-398.22-316.439 227.559-316.439-227.559 117.323 398.22-312.884 227.559h369.785z" />
<glyph unicode="&#xe95a;" glyph-name="stopwatch" d="M561.787 960l99.54-102.387h-99.54v-105.951c72.529-9.371 138.932-38.869 194.011-82.919v0l69.449 71.469 70.38-72.427-69.481-71.436c52.512-69.357 84.077-156.269 84.077-250.737 0-225.859-178.645-409.613-398.223-409.613s-398.223 183.755-398.223 409.613c0 208.469 152.308 380.708 348.436 406.049v0 105.951h-99.54l99.54 102.387h99.572zM512.002 652.807c-164.691 0-298.651-137.824-298.651-307.193 0-169.435 133.96-307.227 298.651-307.227s298.683 137.792 298.683 307.227c0 169.369-133.992 307.193-298.683 307.193zM561.766 550.397l0.017-116.091c29.753-17.713 49.775-50.809 49.775-88.707 0-56.555-44.589-102.42-99.572-102.42-54.951 0-99.54 45.864-99.54 102.42 0 37.873 19.996 70.951 49.708 88.673l0.039 116.124h99.572z" />
<glyph unicode="&#xe95b;" glyph-name="tick-circle" d="M511.981 960c282.295 0 512.019-229.686 512.019-511.981s-229.722-512.019-512.019-512.019c-282.295 0-511.981 229.722-511.981 512.019s229.686 511.981 511.981 511.981zM511.981 846.239c-219.567 0-398.22-178.653-398.22-398.22s178.653-398.22 398.22-398.22c219.604 0 398.22 178.653 398.22 398.22s-178.615 398.22-398.22 398.22zM642.412 602.019l80.472-80.436-267.777-267.777-154.015 153.979 80.472 80.436 73.543-73.543 187.305 187.341z" />
<glyph unicode="&#xe95c;" glyph-name="tick" d="M354.775 64.001l-354.775 363.37 80.839 82.705 273.937-280.552 588.384 602.475 80.839-82.78z" />
<glyph unicode="&#xe95d;" glyph-name="trolley" d="M370.692 163.561c62.991 0 114.073-50.959 114.073-113.799 0-62.802-51.082-113.763-114.073-113.763s-114.073 50.959-114.073 113.763c0 62.838 51.082 113.799 114.073 113.799zM798.382 163.561c62.991 0 114.073-50.959 114.073-113.799 0-62.802-51.082-113.763-114.073-113.763s-114.073 50.959-114.073 113.763c0 62.838 51.082 113.799 114.073 113.799zM142.593 959.999c40.719 0 79.197-28.12 91.471-66.835v0l14.994-46.927h713.289c21.646 0 41.271-10.741 52.516-28.669 11.172-18.001 12.165-40.291 2.61-59.686v0l-164.899-328.968c-11.098-22.474-35.832-37.798-61.3-37.798v0h-397.015l18.118-56.899h500.064v-113.763h-513.22c-40.756 0-79.234 28.12-91.509 66.835v0l-178.312 558.949h-129.399v113.763z" />
<glyph unicode="&#xe95e;" glyph-name="bolt" d="M398.255-64l56.694 398.557h-174.755c-11.231 0-19.402 4.855-24.502 14.567-5.127 9.712-4.624 19.167 1.506 28.367l315.811 582.508h55.188l-56.733-398.557h173.213c9.196 0 16.615-4.855 22.258-14.567 5.616-9.712 6.375-19.167 2.279-28.367l-315.777-582.508h-55.188z" />
<glyph unicode="&#xe95f;" glyph-name="twitter" d="M1023.998 765.566c-37.632-16.704-78.144-27.967-120.64-33.088 43.392 25.984 76.672 67.2 92.416 116.224-40.639-24.064-85.632-41.536-133.44-50.944-38.335 40.831-92.992 66.304-153.343 66.304-116.032 0-210.112-94.015-210.112-210.048 0-16.447 1.855-32.512 5.44-47.872-174.592 8.767-329.472 92.352-433.024 219.456-18.048-30.976-28.416-67.072-28.416-105.6 0-72.895 37.056-137.152 93.439-174.847-34.432 1.087-66.816 10.56-95.167 26.304v-2.688c0-101.76 72.448-186.688 168.448-205.951-17.536-4.864-36.096-7.423-55.296-7.423-13.567 0-26.688 1.344-39.487 3.775 26.688-83.455 104.32-144.192 196.159-145.855-71.872-56.383-162.367-89.92-260.863-89.92-16.896 0-33.6 0.96-50.112 2.88 92.992-59.584 203.392-94.336 322.048-94.336 386.431 0 597.76 320.128 597.76 597.696 0 9.151-0.192 18.175-0.64 27.199 41.088 29.632 76.735 66.624 104.832 108.736z" />
<glyph unicode="&#xe960;" glyph-name="unlock" d="M511.999 217.588c-41.221 0-74.679 34.381-74.679 76.815 0 42.4 33.457 76.781 74.679 76.781 41.253 0 74.679-34.381 74.679-76.781 0-42.433-33.425-76.815-74.679-76.815v0zM760.896 703.984c0 141.191-111.665 256.016-248.897 256.016s-248.865-114.827-248.865-256.016v-153.597h-124.464c-13.665 0-24.893-11.516-24.893-25.572v-179.235c0-226.221 178.324-409.58 398.223-409.58 219.931 0 398.223 183.359 398.223 409.58v179.235c0 14.056-11.228 25.572-24.893 25.572h-522.655v153.597c0 84.733 66.98 153.597 149.325 153.597s149.325-68.863 149.325-153.597h99.572z" />
<glyph unicode="&#xe961;" glyph-name="user" d="M512 464.353c-70.4 0-128 21.803-172.8 65.408s-67.2 99.671-67.2 168.193c0 68.523 22.4 124.588 67.2 168.193s102.4 65.408 172.8 65.408c70.4 0 128-21.803 172.8-65.408s67.2-99.671 67.2-168.193c0-68.523-22.4-124.588-67.2-168.193s-102.4-65.408-172.8-65.408v0zM0-35.554v146.391c0 39.453 10.133 73.195 30.4 101.228s46.4 49.316 78.4 63.851c71.467 31.147 140 54.507 205.6 70.080s131.467 23.36 197.6 23.36c66.133 0 131.733-8.047 196.8-24.139s133.333-39.193 204.8-69.301c33.067-14.535 59.733-35.819 80-63.851s30.4-61.775 30.4-101.228v-146.391h-1024zM96 57.886h832v52.949c0 16.612-5.067 32.445-15.2 47.499s-22.667 26.215-37.6 33.483c-68.267 32.185-130.667 54.248-187.2 66.187s-115.2 17.909-176 17.909c-60.8 0-120-5.969-177.6-17.909s-120-34.003-187.2-66.187c-14.933-7.268-27.2-18.428-36.8-33.483s-14.4-30.888-14.4-47.499v-52.949zM512 557.794c41.6 0 76 13.237 103.2 39.712s40.8 59.957 40.8 100.449c0 40.491-13.6 73.973-40.8 100.449s-61.6 39.712-103.2 39.712c-41.6 0-76-13.237-103.2-39.712s-40.8-59.957-40.8-100.449c0-40.491 13.6-73.973 40.8-100.449s61.6-39.712 103.2-39.712z" />
<glyph unicode="&#xe962;" glyph-name="video-camera" d="M768.016 503.731v119.428c0 13.739-11.549 25.027-25.605 25.027h-132.413l-153.596 150.13h-353.982v-100.109h311.581l51.21-50.022h-439.606c-14.089 0-25.605-11.288-25.605-25.027v-500.446c0-13.771 11.516-25.027 25.605-25.027h716.806c14.056 0 25.605 11.256 25.605 25.027v119.428l255.984-144.455v550.5l-255.984-144.455z" />
<glyph unicode="&#xe963;" glyph-name="vimeo" d="M0.001 651.602l41.538-54.529c0 0 85.826 67.586 114.435 33.857 28.544-33.857 137.668-441.995 174.149-517.261 31.745-66.114 119.492-153.412 215.686-91.010 96.194 62.337 415.818 335.305 473.1 657.617 57.153 322.249-384.778 254.791-431.5-25.985 116.996 70.274 179.333-28.544 119.555-140.356-59.778-111.682-114.307-184.581-142.916-184.581-28.544 0-50.562 74.754-83.203 205.445-33.857 135.044-33.665 378.442-174.213 350.858-132.483-26.048-306.632-234.054-306.632-234.054z" />
<glyph unicode="&#xe964;" glyph-name="volume-high" d="M512.155 959.999v-1023.999l-320.081 256h-64.024c-70.419 0-128.050 57.618-128.050 128.021v0 255.958c0 70.445 57.63 128.021 128.050 128.021v0h64.024l320.081 256zM874.252 810.057c199.664-199.619 199.664-524.456 0-724.116v0l-90.509 90.53c149.749 149.715 149.749 393.342 0 543.097v0zM674.518 674.303c124.749-124.803 124.749-327.805-0.042-452.609v0l-90.55 90.53c74.874 74.858 74.874 196.691 0 271.59v0z" />
<glyph unicode="&#xe965;" glyph-name="volume-low" d="M640.093 960v-1024l-320.068 256h-64.021c-70.416 0-128.002 57.618-128.002 128.020v0 255.958c0 70.444 57.586 128.020 128.002 128.020v0h64.021l320.068 256zM802.445 674.306c124.744-124.803 124.744-327.805-0.040-452.608v0l-90.505 90.529c74.83 74.857 74.83 196.692-0.040 271.59v0z" />
<glyph unicode="&#xe966;" glyph-name="volume-off" d="M455.663 899.765v-903.53l-283.587 225.882h-56.931c-62.657 0-115.145 50.839-115.145 112.96v0 225.846c0 62.157 52.489 112.96 115.145 112.96v0h56.931l283.587 225.882zM943.469 671.454l80.531-79.844-144.84-143.601 144.84-143.601-80.531-79.844-144.84 143.601-144.84-143.601-80.568 79.844 144.877 143.601-144.877 143.601 80.568 79.844 144.84-143.601 144.84 143.601z" />
<glyph unicode="&#xe967;" glyph-name="cross-circle" d="M149.782 810.195c199.735 199.735 524.716 199.735 724.426 0.025s199.735-524.716 0-724.451c-199.71-199.71-524.716-199.683-724.426 0.025s-199.71 524.691 0 724.4zM230.263 729.714c-155.332-155.332-155.332-408.108 0-563.438s408.108-155.332 563.438 0c155.358 155.358 155.332 408.108 0 563.438s-408.081 155.358-563.438 0zM431.494 608.979l80.506-80.506 80.506 80.506 80.481-80.481-80.506-80.506 80.506-80.506-80.481-80.481-80.506 80.506-80.506-80.506-80.481 80.481 80.506 80.506-80.506 80.506 80.481 80.481z" />
<glyph unicode="&#xe968;" glyph-name="cross" d="M1024 879.564l-80.436 80.436-431.546-431.546-431.546 431.546-80.472-80.436 431.583-431.546-431.583-431.546 80.472-80.472 431.546 431.546 431.546-431.546 80.436 80.472-431.546 431.546z" />
<glyph unicode="&#xe969;" glyph-name="youtube" d="M406.272 315.169v287.743l276.671-144.384-276.671-143.359zM1013.758 652.704c0 0-9.984 70.528-40.704 101.632-38.911 40.831-82.56 41.023-102.592 43.392-143.296 10.368-358.271 10.368-358.271 10.368h-0.448c0 0-214.912 0-358.207-10.368-20.032-2.368-63.616-2.56-102.592-43.392-30.72-31.104-40.704-101.632-40.704-101.632s-10.24-82.879-10.24-165.696v-77.695c0-82.879 10.24-165.76 10.24-165.76s9.984-70.528 40.704-101.632c38.976-40.768 90.112-39.487 112.896-43.776 81.919-7.807 348.16-10.24 348.16-10.24s215.167 0.319 358.463 10.687c20.032 2.368 63.679 2.56 102.592 43.327 30.72 31.104 40.704 101.632 40.704 101.632s10.24 82.879 10.24 165.76v77.695c0 82.816-10.24 165.696-10.24 165.696v0z" />
<glyph unicode="&#xe96a;" glyph-name="youtube-logo" d="M836.928 471.776c103.296 0 187.072-83.839 187.072-187.135v0-150.4c0-103.231-83.776-187.072-187.072-187.072v0h-649.92c-103.296 0-187.008 83.839-187.008 187.072v0 150.4c0 103.296 83.712 187.135 187.008 187.135v0zM788.096 320.096c-23.232 0-42.048-7.104-56.704-21.184-14.719-14.143-22.015-32.575-22.015-54.976v0-116.416c0-25.024 6.784-44.608 20.032-58.752 13.312-14.335 31.615-21.376 54.784-21.376 25.792 0 45.247 6.655 58.111 19.968 13.12 13.504 19.584 33.6 19.584 60.16v0 13.312h-53.311v-11.839c0-15.232-1.792-25.024-5.119-29.568-3.456-4.48-9.472-6.72-18.048-6.72-8.256 0-14.143 2.623-17.599 7.872-3.328 5.311-5.056 14.784-5.056 28.416v0 48.832h99.136v66.112c0 24.576-6.4 43.392-19.135 56.512-12.672 13.056-30.912 19.648-54.655 19.648zM398.144 313.633h-51.84v-216.703c0-15.487 3.072-26.944 9.088-34.687 6.144-7.807 15.040-11.584 27.136-11.584 9.664 0 19.711 2.688 30.016 8.32 10.432 5.44 20.352 13.44 29.887 23.935v0-28.48h51.84v259.2h-51.84v-196.864c-4.864-5.632-10.176-10.24-16.063-13.951-5.824-3.648-10.687-5.376-14.4-5.376-4.8 0-8.383 1.279-10.624 4.159-2.112 2.688-3.199 7.104-3.199 13.248v0 198.784zM585.6 405.793h-52.416v-351.36h52.416v19.903c6.72-7.999 14.208-13.824 22.144-17.599 7.872-3.775 16.896-5.568 27.072-5.568 15.295 0 27.136 4.8 35.2 14.592 8.191 9.856 12.16 23.935 12.16 42.175v0 143.872c0 21.184-4.224 37.375-12.928 48.448-8.64 11.071-21.12 16.512-37.567 16.512-8.064 0-16-1.984-23.935-6.144-7.744-4.096-15.168-10.176-22.144-17.983v0 113.152zM323.584 405.793h-179.2v-51.072h60.352v-300.288h58.432v300.288h60.415v51.072zM607.257 275.635c6.912 0 12.352-2.239 16.128-6.72 3.712-4.543 5.44-11.136 5.44-19.968v0-133.824c0-8.32-1.536-14.143-4.416-17.856-3.007-3.712-7.68-5.568-14.016-5.568-4.416 0-8.512 1.024-12.48 2.815-4.032 1.792-8.128 5.056-12.352 9.151v0 161.536c3.583 3.583 7.039 6.271 10.687 7.936s7.296 2.496 11.008 2.496zM785.888 274.759c7.872 0 13.759-2.368 17.28-7.168 3.52-4.608 5.376-12.415 5.376-23.296v0-26.176h-45.76v26.176c0 10.879 1.728 18.688 5.376 23.296 3.583 4.8 9.472 7.168 17.728 7.168zM505.831 854.471c24.127 0 43.84-6.912 59.392-20.736 15.295-13.696 22.975-31.68 22.975-53.376v0-147.456c0-24.448-7.488-43.519-22.591-57.535-15.168-13.888-35.968-20.8-62.464-20.8-25.536 0-45.952 7.168-61.248 21.568-15.232 14.4-22.912 33.6-22.912 57.856v0 148.032c0 22.144 7.872 39.744 23.488 52.8 15.679 13.12 36.864 19.648 63.36 19.648zM693.734 847.232v-218.88c0-6.72 1.408-11.584 3.775-14.592 2.368-3.072 6.463-4.543 11.904-4.543 4.224 0 9.727 1.984 16.255 5.952 6.528 4.096 12.544 9.151 17.983 15.36v0 216.703h58.368v-285.504h-58.368v31.68c-10.687-11.647-21.888-20.608-33.6-26.623-11.584-6.016-22.848-9.216-33.792-9.216-13.567 0-23.616 4.351-30.528 12.928-6.784 8.383-10.24 21.12-10.24 38.143v0 238.591h58.24zM260.102 948.831l42.624-154.752h4.096l40.704 154.752h66.688l-76.48-226.495v-160.576h-65.599v153.343l-78.208 233.728h66.175zM502.951 804.998c-7.039 0-12.864-1.855-17.344-5.695-4.416-3.904-6.655-8.896-6.655-15.168v0-155.52c0-7.872 2.112-13.824 6.271-18.112 4.096-4.416 10.048-6.463 17.728-6.463 7.936 0 14.208 2.176 18.816 6.528 4.672 4.351 7.039 10.432 7.039 18.048v0 155.52c0 6.271-2.368 11.263-7.104 15.168-4.735 3.84-11.008 5.695-18.751 5.695z" />
<glyph unicode="&#xe96b;" glyph-name="sun" d="M477.091 785.455v174.545h69.818v-174.545h-69.818zM774.982 662.109l-48.873 48.873 123.345 124.509 48.873-50.036-123.345-123.345zM849.455 413.091v69.818h174.545v-69.818h-174.545zM477.091-64v174.545h69.818v-174.545h-69.818zM247.855 663.273l-122.182 122.182 48.873 48.873 123.345-123.345-50.036-47.709zM850.618 61.673l-124.509 123.345 47.709 47.709 125.673-121.018-48.873-50.036zM0 413.091v69.818h174.545v-69.818h-174.545zM175.709 61.673l-50.036 48.873 122.182 122.182 25.6-23.273 25.6-24.436-123.345-123.345zM512 168.727c-77.576 0-143.515 27.152-197.818 81.455s-81.455 120.243-81.455 197.818c0 77.576 27.152 143.515 81.455 197.818s120.243 81.455 197.818 81.455c77.576 0 143.515-27.152 197.818-81.455s81.455-120.243 81.455-197.818c0-77.576-27.152-143.515-81.455-197.818s-120.243-81.455-197.818-81.455zM512 238.545c58.182 0 107.636 20.364 148.364 61.091s61.091 90.182 61.091 148.364c0 58.182-20.364 107.636-61.091 148.364s-90.182 61.091-148.364 61.091c-58.182 0-107.636-20.364-148.364-61.091s-61.091-90.182-61.091-148.364c0-58.182 20.364-107.636 61.091-148.364s90.182-61.091 148.364-61.091z" />
<glyph unicode="&#xe96c;" glyph-name="sun-shower" d="M244.455 145.455c-13.188 0-24.242 4.46-33.164 13.382s-13.382 19.975-13.382 33.164c0 13.188 4.46 24.242 13.382 33.164s19.975 13.382 33.164 13.382c13.188 0 24.242-4.46 33.164-13.382s13.382-19.975 13.382-33.164c0-13.188-4.46-24.242-13.382-33.164s-19.975-13.382-33.164-13.382zM384.091-46.545c-13.188 0-24.242 4.46-33.164 13.382s-13.382 19.975-13.382 33.164c0 13.188 4.46 24.242 13.382 33.164s19.975 13.382 33.164 13.382c13.188 0 24.242-4.46 33.164-13.382s13.382-19.975 13.382-33.164c0-13.188-4.46-24.242-13.382-33.164s-19.975-13.382-33.164-13.382zM523.727 145.455c-13.188 0-24.242 4.46-33.164 13.382s-13.382 19.975-13.382 33.164c0 13.188 4.46 24.242 13.382 33.164s19.975 13.382 33.164 13.382c13.188 0 24.242-4.46 33.164-13.382s13.382-19.975 13.382-33.164c0-13.188-4.46-24.242-13.382-33.164s-19.975-13.382-33.164-13.382zM663.364-46.545c-13.188 0-24.242 4.46-33.164 13.382s-13.382 19.975-13.382 33.164c0 13.188 4.46 24.242 13.382 33.164s19.975 13.382 33.164 13.382c13.188 0 24.242-4.46 33.164-13.382s13.382-19.975 13.382-33.164c0-13.188-4.46-24.242-13.382-33.164s-19.975-13.382-33.164-13.382zM803 145.455c-13.188 0-24.242 4.46-33.164 13.382s-13.382 19.975-13.382 33.164c0 13.188 4.46 24.242 13.382 33.164s19.975 13.382 33.164 13.382c13.188 0 24.242-4.46 33.164-13.382s13.382-19.975 13.382-33.164c0-13.188-4.46-24.242-13.382-33.164s-19.975-13.382-33.164-13.382zM11.727 395.637v69.818h186.182v-69.818zM268.891 636.51l-131.491 131.491 48.872 48.872 131.491-131.491zM302.636 395.637v34.909c0 61.285 21.527 113.455 64.582 156.509s95.224 64.582 156.509 64.582c61.285 0 113.455-21.527 156.509-64.582s64.582-95.224 64.582-156.509v-34.909h-69.818v34.909c0 41.891-14.739 77.576-44.219 107.054s-65.164 44.219-107.054 44.219c-41.891 0-77.576-14.739-107.054-44.219s-44.219-65.164-44.219-107.054v-34.909h-69.818zM488.818 756.364v186.182h69.818v-186.182zM777.4 635.346l-48.872 48.872 132.655 132.655 48.872-48.872zM849.545 395.637v69.818h186.182v-69.818z" />
<glyph unicode="&#xe96d;" glyph-name="slider" d="M836.267 746.667c34.133 0 59.733-25.6 59.733-55.467v-486.4c0-29.867-25.6-55.467-59.733-55.467h-652.8c-29.867 0-55.467 25.6-55.467 55.467v486.4c0 29.867 25.6 55.467 55.467 55.467h652.8zM819.2 669.867h-614.4v-448l179.2 174.933c8.533 8.533 21.333 8.533 25.6 0l64-59.733 345.6 332.8zM349.867 584.533c34.133 0 59.733-25.6 59.733-59.733s-25.6-59.733-59.733-59.733c-34.133 0-59.733 25.6-59.733 59.733s25.6 59.733 59.733 59.733z" />
<glyph unicode="&#xe96e;" glyph-name="map" d="M597.333 533.333c0-70.692-57.308-128-128-128s-128 57.308-128 128c0 70.692 57.308 128 128 128s128-57.308 128-128zM490.667 430.933c-55.467 0-98.133 42.667-98.133 93.867s42.667 98.133 98.133 98.133c55.467 0 98.133-42.667 98.133-98.133s-42.667-93.867-98.133-93.867zM716.8 738.133c-123.733 123.733-328.533 123.733-452.267 0s-123.733-324.267 0-452.267l226.133-226.133 226.133 226.133c123.733 128 123.733 328.533 0 452.267z" />
<glyph unicode="&#xe96f;" glyph-name="list" d="M512 622.933h-341.333v81.067h341.333v-81.067zM853.333 388.267h-682.667v81.067h682.667v-81.067zM699.733 149.333h-529.067v81.067h529.067v-81.067z" />
<glyph unicode="&#xe970;" glyph-name="download" d="M716.8 584.729l-164.978-159.289v369.778h-79.644v-369.778l-164.978 159.289-51.2-51.2 256-244.622 256 244.622zM301.511 135.307h420.978v73.956h-420.978z" />
<glyph unicode="&#xe971;" glyph-name="phone-other" d="M179.89 959.989c-27.244-0.595-39.026-9.027-55.351-27.675l-96.864-110.701c-20.269-23.135-27.675-59.242-27.675-96.864 0-125.674 94.539-329.78 276.754-511.994s386.32-276.754 511.994-276.754c37.622 0 73.729 7.405 96.864 27.675l110.701 96.864c18.649 16.324 27.080 28.107 27.675 55.351 0.432 20.054-11.459 39.134-27.675 55.351l-152.215 152.215c-17.081 17.081-31.784 27.675-55.351 27.675-24.54 0-40.215-12.54-55.351-27.675l-55.351-55.351c-25.351-24.432-44.27-26.269-69.188-13.838l-290.591 290.591c-12.432 24.919-10.594 43.838 13.838 69.188l55.351 55.351c15.136 15.136 27.675 30.811 27.675 55.351 0 23.567-10.594 38.269-27.675 55.351l-152.215 152.215c-16.216 16.216-35.297 28.107-55.351 27.675z" />
<glyph unicode="&#xe972;" glyph-name="website" d="M512 960c-282.358 0-512-229.642-512-512s229.642-512 512-512c282.358 0 512 229.642 512 512s-229.642 512-512 512zM905.523 652.882h-198.717c-8.76 53.4-20.799 102.28-35.88 144.404-10.28 28.8-22 54.28-35.12 76.68 117.32-33.96 214.364-114.719 269.722-221.082l-0.004-0.003zM654.602 448c0-47.92-3.36-93.2-8.12-136.561h-256.604c-4.76 43.36-8.12 88.6-8.12 136.561s3.32 93.24 8.12 136.602h256.604c4.8-43.36 8.12-88.639 8.12-136.602zM477.727 866.284c15.76 18.64 28.32 24.72 38.719 25.281 1.56 0 3.080-0.24 4.6-0.24 10.16-1.040 22.56-7.28 37.52-25 16.48-19.48 33.64-51.28 48.12-91.92 12.4-34.64 22.68-75.92 30.68-121.477h-238.561c8 45.56 18.36 86.84 30.72 121.477 14.6 40.6 31.76 72.36 48.2 91.88l0.002-0.001zM402.647 877.684c-14.12-23.28-26.48-50-37.36-80.4-15.041-42.12-27.12-91-35.88-144.404l-210.995-0.040c57.6 110.715 160.44 193.516 284.242 224.84l-0.007 0.005zM68.25 448.003c0 47.72 7.68 93.56 21.52 136.602h230.523c-4.4-43.44-6.88-89.2-6.88-136.602s2.48-93.040 6.92-136.561h-230.523c-13.88 43.040-21.56 88.84-21.56 136.561zM118.489 243.121h210.995c8.76-53.48 20.799-102.441 35.88-144.599 10.84-30.36 23.24-57.040 37.36-80.2-123.802 31.32-226.642 114.155-284.242 224.799h0.007zM558.604 29.72c-14.88-17.601-27.16-23.84-37.24-24.92-1.68-0.040-3.28-0.24-4.88-0.24-10.4 0.56-23 6.56-38.719 25.2-16.48 19.48-33.599 51.080-48.12 91.76-12.36 34.64-22.8 76-30.8 121.682h238.643c-8-45.68-18.36-87.040-30.76-121.682-14.48-40.72-31.64-72.28-48.12-91.8h-0.005zM635.885 22.038c13.16 22.322 24.76 47.722 35.080 76.483 15.080 42.16 27.16 91.12 35.92 144.599h198.605c-55.359-106.281-152.32-187.116-269.599-221.082h-0.006zM715.924 311.442c4.48 43.48 6.96 89.12 6.96 136.561s-2.48 93.16-6.96 136.602h218.163c13.88-43.040 21.52-88.88 21.52-136.602s-7.64-93.52-21.52-136.561h-218.163z" />
<glyph unicode="&#xe973;" glyph-name="sun-cloud" d="M777.309 188.509l123.345-123.345-50.036-50.036-123.345 123.345 50.036 50.036zM511.999 680.727c77.575 0 143.515-27.152 197.818-81.455s81.455-120.243 81.455-197.818c0-60.509-17.261-114.812-51.782-162.909-32.705-45.565-75.33-78.251-127.877-98.055l-6.687-2.431c0.109 2.451 0.165 4.916 0.165 7.395 0 22.385-4.515 43.716-12.685 63.131l-3.606-1.458c40.339 15.515 72.534 40.921 96.582 76.218s36.073 74.666 36.073 118.109c0 58.182-20.364 107.636-61.091 148.364s-90.182 61.091-148.364 61.091c-51.975 0-97.552-16.485-136.727-49.455-37.114-31.235-59.781-70.65-68-118.246l-1.085-7.040c-15.437 5.131-31.593 8.689-48.276 10.485-0.278 0.015-0.534 0.042-0.789 0.069-1.975 0.22-3.976 0.403-5.985 0.56-0.937 0.071-1.875 0.139-2.816 0.202-1.872 0.125-3.75 0.227-5.634 0.306l-1.571 0.062-0.39 0.013c-2.655 0.090-5.322 0.135-7.999 0.135 10.861 68.266 42.861 124.121 96 167.564s114.23 65.164 183.273 65.164zM1023.999 436.364v-69.818h-174.545v69.818h174.545zM849.454 788.945l48.873-50.036-123.345-123.345-48.873 50.036 123.345 123.345zM174.545 787.782l123.345-123.345-48.873-48.873-123.345 123.345 48.873 48.873zM546.909 913.455v-174.545h-69.818v174.545h69.818zM232.727 448c95.465 0 177.505-57.481 213.399-139.72 88.152-2.060 158.965-74.173 158.965-162.825 0-89.972-72.937-162.909-162.909-162.909h-209.455c-128.532 0-232.727 104.195-232.727 232.727s104.195 232.727 232.727 232.727zM232.727 378.182c-89.972 0-162.909-72.937-162.909-162.909s72.937-162.909 162.909-162.909h209.455c51.413 0 93.091 41.678 93.091 93.091 0 49.855-39.191 90.556-88.445 92.977l-4.646 0.114h-48.195c-11.293 78.948-79.189 139.636-161.259 139.636z" />
<glyph unicode="&#xe974;" glyph-name="open-map" d="M699.904-64l-374.272 132.096-254.464-100.864c-15.872-8.704-31.744-8.192-47.616 1.536s-23.552 23.552-23.552 42.496v793.6c0 12.288 3.584 23.040 10.752 32.768s16.384 16.384 27.648 21.504l287.232 100.864 374.272-131.072 252.928 100.864c15.872 7.68 31.744 6.656 47.616-2.048 15.872-9.216 23.552-23.040 23.552-41.984v-803.328c0-10.24-3.584-19.456-10.752-27.136s-15.872-13.312-26.112-16.896l-287.232-102.4zM651.776 42.496v718.336l-278.528 93.696v-718.336l278.528-93.696zM737.28 42.496l201.728 67.072v728.064l-201.728-76.8v-718.336zM86.016 59.392l201.728 76.8v718.336l-202.24-66.56v-728.064zM736.768 760.832v0zM287.232 854.528v0z" />
<glyph unicode="&#xe975;" glyph-name="cloudy" d="M245.528 76.218c-68.267 0-126.255 23.855-173.964 71.564s-71.564 105.697-71.564 173.964c0 60.509 19.394 113.649 58.182 159.418s88.049 73.309 147.782 82.618c15.515 75.249 51.976 136.727 109.382 184.436s123.733 71.564 198.982 71.564c86.885 0 160.194-31.612 219.927-94.836s89.6-139.055 89.6-227.491v-27.927c55.855 1.551 103.176-16.485 141.964-54.109s58.182-85.14 58.182-142.545c0-53.527-19.394-99.685-58.182-138.473s-84.945-58.182-138.473-58.182h-581.818zM245.528 146.036h581.818c34.909 0 64.776 12.412 89.6 37.236s37.236 54.691 37.236 89.6c0 34.909-12.412 64.776-37.236 89.6s-54.691 37.236-89.6 37.236h-73.309v97.745c0 70.594-23.66 130.327-70.982 179.2s-105.115 73.309-173.382 73.309c-68.267 0-126.255-24.436-173.964-73.309s-71.564-108.606-71.564-179.2h-22.109c-48.097 0-88.824-16.873-122.182-50.618s-50.036-75.442-50.036-125.091c0-48.873 17.067-90.376 51.2-124.509s75.636-51.2 124.509-51.2z" />
<glyph unicode="&#xe976;" glyph-name="rain" d="M268.8 268.658c-74.24 0-137.6 26.24-190.080 78.72s-78.72 115.84-78.72 190.080c0 67.413 24.107 127.573 72.32 180.48s108.16 81.92 179.84 87.040c27.307 47.787 63.36 85.547 108.16 113.28s95.36 41.6 151.68 41.6c77.653 0 142.72-24.533 195.2-73.6s84.693-109.867 96.64-182.4c67.413-3.413 120.96-26.24 160.64-68.48s59.52-91.947 59.52-149.12c0-59.733-21.12-110.933-63.36-153.6s-93.653-64-154.24-64h-537.6zM268.8 345.458h537.6c39.253 0 72.533 13.867 99.84 41.6s40.96 60.8 40.96 99.2c0 39.253-13.653 72.533-40.96 99.84s-60.587 40.96-99.84 40.96h-76.8v38.4c0 60.587-21.12 112-63.36 154.24s-93.653 63.36-154.24 63.36c-43.52 0-83.413-11.733-119.68-35.2s-62.933-55.253-80-95.36l-10.24-23.040h-35.84c-52.907-1.707-97.707-21.12-134.4-58.24s-55.040-81.707-55.040-133.76c0-52.907 18.773-98.133 56.32-135.68s82.773-56.32 135.68-56.32zM611.84-60.302c-9.387-4.267-19.413-4.693-30.080-1.28s-18.133 9.813-22.4 19.2l-88.32 176.64c-4.267 9.387-4.907 19.413-1.92 30.080s9.173 18.133 18.56 22.4c9.387 4.267 19.413 4.693 30.080 1.28s18.133-9.813 22.4-19.2l88.32-176.64c4.267-9.387 4.907-19.413 1.92-30.080s-9.173-18.133-18.56-22.4zM919.040-59.022c-9.387-4.267-19.413-4.693-30.080-1.28s-18.133 9.813-22.4 19.2l-88.32 176.64c-4.267 9.387-4.907 19.413-1.92 30.080s9.173 18.133 18.56 22.4c9.387 4.267 19.413 4.693 30.080 1.28s18.133-9.813 22.4-19.2l88.32-176.64c4.267-9.387 4.907-19.413 1.92-30.080s-9.173-18.133-18.56-22.4zM304.64-59.022c-9.387-4.267-19.413-4.907-30.080-1.92s-18.133 9.173-22.4 18.56l-88.32 176.64c-4.267 9.387-4.693 19.413-1.28 30.080s9.813 18.133 19.2 22.4c9.387 4.267 19.413 4.907 30.080 1.92s18.133-9.173 22.4-18.56l88.32-177.92c4.267-9.387 4.693-19.2 1.28-29.44s-9.813-17.493-19.2-21.76v0z" />
<glyph unicode="&#xe977;" glyph-name="showers" d="M243.81 94.476c-13.816 0-25.397 4.673-34.743 14.019s-14.019 20.927-14.019 34.743c0 13.816 4.673 25.397 14.019 34.743s20.927 14.019 34.743 14.019c13.816 0 25.397-4.673 34.743-14.019s14.019-20.927 14.019-34.743c0-13.816-4.673-25.397-14.019-34.743s-20.927-14.019-34.743-14.019zM390.095-64c-13.816 0-25.397 4.673-34.743 14.019s-14.019 20.927-14.019 34.743c0 13.816 4.673 25.397 14.019 34.743s20.927 14.019 34.743 14.019c13.816 0 25.397-4.673 34.743-14.019s14.019-20.927 14.019-34.743c0-13.816-4.673-25.397-14.019-34.743s-20.927-14.019-34.743-14.019zM536.381 94.476c-13.816 0-25.397 4.673-34.743 14.019s-14.019 20.927-14.019 34.743c0 13.816 4.673 25.397 14.019 34.743s20.927 14.019 34.743 14.019c13.816 0 25.397-4.673 34.743-14.019s14.019-20.927 14.019-34.743c0-13.816-4.673-25.397-14.019-34.743s-20.927-14.019-34.743-14.019zM828.952 94.476c-13.816 0-25.397 4.673-34.743 14.019s-14.019 20.927-14.019 34.743c0 13.816 4.673 25.397 14.019 34.743s20.927 14.019 34.743 14.019c13.816 0 25.397-4.673 34.743-14.019s14.019-20.927 14.019-34.743c0-13.816-4.673-25.397-14.019-34.743s-20.927-14.019-34.743-14.019zM682.667-64c-13.816 0-25.397 4.673-34.743 14.019s-14.019 20.927-14.019 34.743c0 13.816 4.673 25.397 14.019 34.743s20.927 14.019 34.743 14.019c13.816 0 25.397-4.673 34.743-14.019s14.019-20.927 14.019-34.743c0-13.816-4.673-25.397-14.019-34.743s-20.927-14.019-34.743-14.019zM280.381 301.714c-70.705 0-131.048 24.99-181.029 74.971s-74.971 110.324-74.971 181.029c0 64.203 22.959 121.498 68.876 171.886s103.010 78.019 171.276 82.895c26.006 45.511 60.343 81.473 103.010 107.886s90.819 39.619 144.457 39.619c73.955 0 135.924-23.365 185.905-70.095s80.66-104.635 92.038-173.714c64.203-3.251 115.2-24.99 152.99-65.219s56.686-87.568 56.686-142.019c0-56.889-20.114-105.651-60.343-146.286s-89.194-60.952-146.895-60.952h-512zM280.381 374.857h512c37.384 0 69.079 13.206 95.086 39.619s39.010 58.311 39.010 95.695c0 36.571-13.003 67.86-39.010 93.867s-57.702 39.010-95.086 39.010h-73.143v36.571c0 57.702-20.114 106.667-60.343 146.895s-89.194 60.343-146.895 60.343c-41.448 0-79.441-11.175-113.981-33.524s-59.936-52.622-76.19-90.819l-9.752-21.943h-34.133c-50.387-1.625-93.054-20.114-128-55.467s-52.419-77.816-52.419-127.39c0-50.387 17.879-93.46 53.638-129.219s78.832-53.638 129.219-53.638z" />
<glyph unicode="&#xe978;" glyph-name="storm" d="M290.91 331.636c-67.491 0-125.091 23.855-172.8 71.564s-71.564 105.309-71.564 172.8c0 61.285 21.915 115.976 65.745 164.073s98.327 74.473 163.491 79.127c24.824 43.442 57.6 77.77 98.327 102.982s86.691 37.818 137.891 37.818c70.594 0 129.745-22.303 177.455-66.909s76.994-99.879 87.855-165.818c61.285-3.103 109.964-23.855 146.036-62.255s54.109-83.588 54.109-135.564c0-54.303-19.2-100.848-57.6-139.636s-85.139-58.182-140.218-58.182h-488.727zM290.91 401.455h488.727c35.685 0 65.939 12.606 90.764 37.818s37.236 55.661 37.236 91.345c0 34.909-12.412 64.776-37.236 89.6s-55.079 37.236-90.764 37.236h-69.818v34.909c0 55.079-19.2 101.818-57.6 140.218s-85.139 57.6-140.218 57.6c-39.564 0-75.83-10.667-108.8-32s-57.212-50.23-72.727-86.691l-9.309-20.945h-32.582c-48.097-1.552-88.824-19.2-122.182-52.945s-50.036-74.279-50.036-121.6c0-48.097 17.067-89.212 51.2-123.345s75.248-51.2 123.345-51.2zM506.182-64l112.873 128-93.091 46.545 131.491 151.273h93.091l-112.873-128 93.091-46.545-131.491-151.273zM226.91-64l112.873 128-93.091 46.545 131.491 151.273h93.091l-112.873-128 93.091-46.545-131.491-151.273z" />
<glyph unicode="&#xe979;" glyph-name="forklift" d="M128 52.364c-35.685 0-65.939 12.598-90.764 37.792s-37.236 55.9-37.236 92.119c0 19.683 4.072 38.186 12.218 55.508s19.588 32.281 34.328 44.878v230.295h93.091v283.441h358.4l216.436-514.918c5.431-11.81 9.891-24.014 13.382-36.611s5.236-25.588 5.236-38.973c0-42.516-14.739-78.733-44.218-108.652s-65.163-44.878-107.054-44.878c-30.254 0-57.988 8.661-83.2 25.982s-44.025 40.154-56.436 68.498h-190.836c-7.757-27.556-23.079-50.193-45.963-67.908s-48.679-26.572-77.382-26.572zM814.545 99.603v744.034h69.818v-673.174h139.636v-70.86h-209.455zM128 123.224c16.291 0 30.061 5.709 41.309 17.125s16.873 25.392 16.873 41.926c0 16.534-5.625 30.509-16.873 41.926s-25.018 17.125-41.309 17.125c-16.291 0-30.061-5.709-41.309-17.125s-16.873-25.392-16.873-41.926c0-16.534 5.625-30.509 16.873-41.926s25.018-17.125 41.309-17.125zM581.818 123.224c22.497 0 41.697 8.071 57.6 24.211s23.855 35.627 23.855 58.46c0 22.833-7.952 42.32-23.855 58.46s-35.103 24.211-57.6 24.211c-22.497 0-41.697-8.071-57.6-24.211s-23.855-35.627-23.855-58.46c0-22.833 7.952-42.32 23.855-58.46s35.103-24.211 57.6-24.211zM251.346 217.704h179.2c1.551 12.598 4.267 24.801 8.146 36.611s8.921 23.227 15.128 34.249h-132.655l-143.127 153.53h-61.672v-129.911h11.637c28.703 0 54.497-8.857 77.382-26.572s38.206-40.351 45.963-67.908zM352.582 360.606h252.51l-152.436 364.93h-243.2v-212.581l143.127-152.35zM321.164 288.564l-22.109 24.211c-14.739 16.14-31.224 33.659-49.454 52.555s-34.715 36.415-49.454 52.555l-22.109 24.211 143.127-153.53z" />
<glyph unicode="&#xe97a;" glyph-name="edit" d="M571.456 960l-127.998-127.998-315.453-0.010v-767.992h767.992v315.463l127.998 127.998v-571.461h-1023.989v1023.989l571.45 0.010zM767.951 832.009l127.871-128.061-447.948-447.954h-127.871v128.061l447.948 447.954zM895.974 959.988l128.021-128.022-64.009-64.009-128.021 128.022 64.009 64.009z" />
<glyph unicode="&#xe97b;" glyph-name="snow-warning" d="M960 563.2c-10.24 0-19.2 3.84-26.88 11.52s-11.52 16.64-11.52 26.88c0 11.093 3.84 20.267 11.52 27.52s16.64 10.88 26.88 10.88c11.093 0 20.267-3.627 27.52-10.88s10.88-16.427 10.88-27.52c0-10.24-3.627-19.2-10.88-26.88s-16.427-11.52-27.52-11.52zM921.6 716.8v243.2h76.8v-243.2h-76.8zM435.2-64v202.24l-145.92-145.92-53.76 53.76 199.68 199.68v99.84h-99.84l-199.68-199.68-53.76 53.76 145.92 145.92h-202.24v76.8h202.24l-145.92 145.92 53.76 53.76 199.68-199.68h99.84v99.84l-199.68 199.68 53.76 53.76 145.92-145.92v202.24h76.8v-202.24l145.92 145.92 53.76-53.76-199.68-199.68v-99.84h409.6v-76.8h-202.24l145.92-145.92-53.76-53.76-199.68 199.68h-99.84v-99.84l199.68-199.68-53.76-53.76-145.92 145.92v-202.24z" />
<glyph unicode="&#xe97c;" glyph-name="info" d="M512 960c-282.338 0-512-229.68-512-512.016 0-282.305 229.673-511.984 512-511.984 282.296 0 512 229.68 512 511.984 0 282.346-229.714 512.016-512 512.016zM512 6.233c-243.567 0-441.739 198.176-441.739 441.752 0 243.606 198.17 441.783 441.739 441.783s441.739-198.176 441.739-441.783c0-243.574-198.17-441.752-441.739-441.752zM515.795 540.665h-62.476c-19.385 0-35.095-15.71-35.095-35.136 0-19.385 15.709-35.136 35.095-35.136h27.34v-279.357c0-19.426 15.749-35.136 35.135-35.136 19.425 0 35.135 15.71 35.135 35.136v314.489c0 19.426-15.709 35.136-35.135 35.136zM515.795 704.961c-30.289 0-54.843-24.555-54.843-54.845s24.555-54.845 54.843-54.845c30.289 0 54.843 24.555 54.843 54.845s-24.555 54.845-54.843 54.845z" />
<glyph unicode="&#xe97d;" glyph-name="snow" d="M473.6-64v249.6l-190.72-190.72-55.040 53.76 245.76 245.76v115.2h-115.2l-240.64-240.64-56.32 52.48 188.16 188.16h-249.6v76.8h249.6l-192 192 55.040 55.040 245.76-247.040h115.2v116.48l-240.64 240.64 53.76 56.32 186.88-188.16v248.32h76.8v-248.32l192 192 53.76-55.040-245.76-245.76v-116.48h116.48l241.92 241.92 55.040-53.76-188.16-188.16h248.32v-76.8h-248.32l189.44-190.72-52.48-55.040-245.76 245.76h-116.48v-115.2l245.76-247.040-52.48-55.040-193.28 193.28v-249.6z" />
<glyph unicode="&#xe97e;" glyph-name="windy" d="M492.8 12.8c-46.080 0-82.56 11.947-109.44 35.84s-40.32 60.16-40.32 108.8h87.040c0-22.187 4.907-39.040 14.72-50.56s25.814-17.28 48-17.28c23.040 0 39.466 5.12 49.28 15.36s14.72 27.733 14.72 52.48c0 24.747-4.907 42.88-14.72 54.4s-26.24 17.28-49.28 17.28h-492.8v76.8h492.8c46.080 0 81.067-11.947 104.96-35.84s35.84-61.44 35.84-112.64c0-48.64-11.947-84.906-35.84-108.8s-58.88-35.84-104.96-35.84zM0 535.040v76.8h701.44c31.573 0 54.613 7.466 69.12 22.4s21.76 39.893 21.76 74.88c0 34.987-7.253 59.947-21.76 74.88s-37.547 22.4-69.12 22.4c-32.427 0-55.893-8.746-70.4-26.24s-21.76-39.466-21.76-65.92h-76.8c0 49.493 14.934 90.027 44.8 121.6s71.253 47.36 124.16 47.36c52.053 0 93.013-15.147 122.88-45.44s44.8-73.173 44.8-128.64c0-55.467-14.934-98.347-44.8-128.64s-70.827-45.44-122.88-45.44h-701.44zM860.16 112.64v76.8c29.866 0 51.84 8.32 65.92 24.96s21.12 40.746 21.12 72.32c0 32.427-7.893 55.893-23.68 70.4s-38.613 21.76-68.48 21.76h-855.040v76.8h855.040c52.907 0 94.293-14.934 124.16-44.8s44.8-71.253 44.8-124.16c0-54.613-14.080-97.28-42.24-128s-68.694-46.080-121.6-46.080v0z" />
</font>
</defs>
</svg>
